The Hit List (2011)

Posted By: Tavaz
720p (HD) / BDRip IMDb
The Hit List (2011)

The Hit List (2011)
BRRip | MKV | 1280x720 | English | H264 @ 2902 kbps | AC-3 @ 448 kbps | 1 h 30 min | 2.11 GiB
Genre: Thriller/Action

A disgruntled man creates a hit list with a stranger during a drunken night out and must then race to try to save those he marked for extermination as the bodies begin to pile up and all fingers point to him.

The Hit List 2011 720p BRRip AC3 x264 MacGuffin.mkv (2.1 GB)



General
Unique ID : 240084859654264686910317063491790024949 (0xB49EA97B77B25805903BCA5BED9BB0F5)
Complete name : ./The Hit List 2011 720p BRRip AC3 x264 MacGuffin.mkv
Format : Matroska
Format version : Version 2
File size : 2.11 GiB
Duration : 1 h 30 min
Overall bit rate : 3 347 kb/s
Encoded date : UTC 2011-04-17 13:05:14
Writing application : mkvmerge v4.6.0 ('Still Crazy After All These Years') built on Mar 10 2011 02:50:32
Writing library : libebml v1.2.0 + libmatroska v1.1.0

Video
ID : 1
Format : AVC
Format/Info : Advanced Video Codec
Format profile : High@L4.1
Format settings : CABAC / 8 Ref Frames
Format settings, CABAC : Yes
Format settings, RefFrames : 8 frames
Codec ID : V_MPEG4/ISO/AVC
Duration : 1 h 30 min
Bit rate : 2 902 kb/s
Width : 1 280 pixels
Height : 720 pixels
Display aspect ratio : 16:9
Frame rate mode : Constant
Frame rate : 23.976 (24000/1001) FPS
Color space : YUV
Chroma subsampling : 4:2:0
Bit depth : 8 bits
Scan type : Progressive
Bits/(Pixel*Frame) : 0.131
Stream size : 1.78 GiB (85%)
Title : Vid_1
Writing library : x264 core 114 r1924 08d04a4
Encoding settings : cabac=1 / ref=8 / deblock=1:-1:-1 / analyse=0x3:0x133 / me=umh / subme=9 / psy=1 / psy_rd=1.05:0.04 / mixed_ref=1 / me_range=24 / chroma_me=1 / trellis=2 / 8x8dct=1 / cqm=0 / deadzone=21,11 / fast_pskip=0 / chroma_qp_offset=-3 / threads=6 / sliced_threads=0 / slices=4 / nr=0 / decimate=1 / interlaced=0 / constrained_intra=0 / bframes=4 / b_pyramid=2 / b_adapt=2 / b_bias=0 / direct=3 / weightb=1 / open_gop=1 / weightp=2 / keyint=250 / keyint_min=23 / scenecut=40 / intra_refresh=0 / rc_lookahead=48 / rc=2pass / mbtree=1 / bitrate=2902 / ratetol=1.5 / qcomp=0.60 / qpmin=10 / qpmax=51 / qpstep=4 / cplxblur=20.0 / qblur=0.5 / ip_ratio=1.40 / aq=2:1.40
Default : Yes
Forced : No
Color range : Limited
Color primaries : BT.709
Transfer characteristics : BT.709
Matrix coefficients : BT.709

Audio
ID : 2
Format : AC-3
Format/Info : Audio Coding 3
Format settings, Endianness : Big
Codec ID : A_AC3
Duration : 1 h 30 min
Bit rate mode : Constant
Bit rate : 448 kb/s
Channel(s) : 6 channels
Channel positions : Front: L C R, Side: L R, LFE
Sampling rate : 48.0 kHz
Frame rate : 31.250 FPS (1536 SPF)
Bit depth : 16 bits
Compression mode : Lossy
Stream size : 289 MiB (13%)
Title : Au_0
Language : English
Service kind : Complete Main
Default : Yes
Forced : No





The Hit List (2011)


The Hit List (2011)


The Hit List (2011)


The Hit List (2011)


The Hit List (2011)