The Hunger Games: Mockingjay - Part 1 (2014)

Posted By: Tavaz
2160p (4k UHD) / BDRip IMDb
The Hunger Games: Mockingjay - Part 1 (2014)

The Hunger Games: Mockingjay - Part 1 (2014)
BDRip | MKV | 3840x2160 | English | H265 @ 4916 kbps | AC-3 @ 640 kbps | 2 h 2 min | 4.80 GiB
Subtitles: Portuguese, Spanish, English
Genre: Adventure, Science Fiction, Thriller

Katniss Everdeen reluctantly becomes the symbol of a mass rebellion against the autocratic Capitol.

54594428eb434495851c5d8ee6148ff9.mkv (4.8 GB)



General
Complete name : ./54594428eb434495851c5d8ee6148ff9.mkv
Format : Matroska
Format version : Version 4 / Version 2
File size : 4.80 GiB
Duration : 2 h 2 min
Overall bit rate : 5 593 kb/s
Encoded date : UTC 2018-02-25 02:00:40
Writing application : mkvmerge v20.0.0 ('I Am The Sun') 64-bit
Writing library : libebml v1.3.5 + libmatroska v1.4.8
Cover : Yes
Attachments : cover.jpg

Video
ID : 1
Format : HEVC
Format/Info : High Efficiency Video Coding
Format profile : Main 10@L5@Main
Codec ID : V_MPEGH/ISO/HEVC
Duration : 2 h 2 min
Bit rate : 4 916 kb/s
Width : 3 840 pixels
Height : 2 160 pixels
Display aspect ratio : 16:9
Frame rate mode : Constant
Frame rate : 23.976 (24000/1001) FPS
Color space : YUV
Chroma subsampling : 4:2:0
Bit depth : 10 bits
Bits/(Pixel*Frame) : 0.025
Stream size : 4.22 GiB (88%)
Title : [SGJ5-LorD]
Language : English
Default : Yes
Forced : No
Color range : Limited
Color primaries : BT.2020
Transfer characteristics : PQ
Matrix coefficients : BT.2020 non-constant

Audio
ID : 2
Format : AC-3
Format/Info : Audio Coding 3
Format settings, Endianness : Big
Codec ID : A_AC3
Duration : 2 h 2 min
Bit rate mode : Constant
Bit rate : 640 kb/s
Channel(s) : 6 channels
Channel positions : Front: L C R, Side: L R, LFE
Sampling rate : 48.0 kHz
Frame rate : 31.250 FPS (1536 SPF)
Bit depth : 16 bits
Compression mode : Lossy
Stream size : 562 MiB (11%)
Title : Compatibility Track / Dolby Digital Audio / 5.1-EX / 48 kHz / 640 kbps
Language : English
Service kind : Complete Main
Default : Yes
Forced : No

Text #1
ID : 3
Format : UTF-8
Codec ID : S_TEXT/UTF8
Codec ID/Info : UTF-8 Plain Text
Duration : 1 h 50 min
Bit rate : 54 b/s
Count of elements : 1325
Stream size : 44.4 KiB (0%)
Language : Portuguese
Default : Yes
Forced : No

Text #2
ID : 4
Format : PGS
Muxing mode : zlib
Codec ID : S_HDMV/PGS
Codec ID/Info : Picture based subtitle format used on BDs/HD-DVDs
Duration : 1 h 49 min
Bit rate : 34.2 kb/s
Count of elements : 2528
Stream size : 26.9 MiB (1%)
Language : English
Default : No
Forced : No

Text #3
ID : 5
Format : PGS
Muxing mode : zlib
Codec ID : S_HDMV/PGS
Codec ID/Info : Picture based subtitle format used on BDs/HD-DVDs
Duration : 1 h 49 min
Bit rate : 38.5 kb/s
Count of elements : 3000
Stream size : 30.3 MiB (1%)
Title : SDH
Language : English
Default : No
Forced : No

Text #4
ID : 6
Format : PGS
Muxing mode : zlib
Codec ID : S_HDMV/PGS
Codec ID/Info : Picture based subtitle format used on BDs/HD-DVDs
Duration : 1 h 50 min
Bit rate : 33.7 kb/s
Count of elements : 2482
Stream size : 26.6 MiB (1%)
Title : Latin American
Language : Spanish
Default : No
Forced : No

Menu
00:00:00.000 : en:Chapter 1
00:08:43.648 : en:Chapter 2
00:15:02.819 : en:Chapter 3
00:22:56.083 : en:Chapter 4
00:29:52.457 : en:Chapter 5
00:36:45.745 : en:Chapter 6
00:42:34.969 : en:Chapter 7
00:50:33.989 : en:Chapter 8
00:56:31.013 : en:Chapter 9
01:02:14.898 : en:Chapter 10
01:09:27.830 : en:Chapter 11
01:17:37.444 : en:Chapter 12
01:25:10.105 : en:Chapter 13
01:34:20.947 : en:Chapter 14
01:41:33.838 : en:Chapter 15
01:47:20.100 : en:Chapter 16





The Hunger Games: Mockingjay - Part 1 (2014)


The Hunger Games: Mockingjay - Part 1 (2014)


The Hunger Games: Mockingjay - Part 1 (2014)


The Hunger Games: Mockingjay - Part 1 (2014)


The Hunger Games: Mockingjay - Part 1 (2014)