Tags
Language
Tags

The Incredibles (2004)

Posted By: Tavaz
1080p (FullHD) / BDRip IMDb
The Incredibles (2004)

The Incredibles (2004)
BDRip | MKV | 1920x1080 | English / English / English | H264 @ 5760 kbps | AC-3 @ 448 kbps | 1 h 55 min | 5.31 GiB
Subtitles: English
Genre: Action, Adventure, Animation, Family

Bob Parr has given up his superhero days to log in time as an insurance adjuster and raise his three children with his formerly heroic wife in suburbia. But when he receives a mysterious assignment, it's time to get back into costume.

d4df1bfa3b4d4f73a4f60fa853bd24eb.mkv (5.3 GB)



General
Unique ID : 38921407614567090630741827733337519680 (0x1D47FD8D7E2BAE83D0100D3C9D75B640)
Complete name : ./d4df1bfa3b4d4f73a4f60fa853bd24eb.mkv
Format : Matroska
Format version : Version 4 / Version 2
File size : 5.31 GiB
Duration : 1 h 55 min
Overall bit rate : 6 586 kb/s
Movie name : The.Incredibles.2004.1080p.BluRay.x264-nikt0
Encoded date : UTC 2019-03-10 03:13:02 / UTC 2019-03-09T11:21:45Z
Writing application : mkvmerge v31.0.0 ('Dolores In A Shoestand') 64-bit
Writing library : libebml v1.3.6 + libmatroska v1.4.9 / Lavf57.7.2

Video
ID : 1
Format : AVC
Format/Info : Advanced Video Codec
Format profile : High@L4
Format settings : CABAC / 4 Ref Frames
Format settings, CABAC : Yes
Format settings, RefFrames : 4 frames
Codec ID : V_MPEG4/ISO/AVC
Duration : 1 h 55 min
Bit rate : 5 760 kb/s
Width : 1 920 pixels
Height : 1 080 pixels
Display aspect ratio : 16:9
Frame rate mode : Constant
Frame rate : 23.976 (24000/1001) FPS
Color space : YUV
Chroma subsampling : 4:2:0
Bit depth : 8 bits
Scan type : Progressive
Bits/(Pixel*Frame) : 0.116
Stream size : 4.53 GiB (85%)
Writing library : x264 core 155 r2901 7d0ff22
Encoding settings : cabac=1 / ref=4 / deblock=1:-3:-3 / analyse=0x3:0x133 / me=umh / subme=9 / psy=1 / psy_rd=1.10:0.25 / mixed_ref=1 / me_range=32 / chroma_me=1 / trellis=2 / 8x8dct=1 / cqm=0 / deadzone=6,6 / fast_pskip=1 / chroma_qp_offset=-4 / threads=24 / lookahead_threads=2 / sliced_threads=0 / nr=0 / decimate=1 / interlaced=0 / bluray_compat=0 / constrained_intra=0 / bframes=6 / b_pyramid=2 / b_adapt=2 / b_bias=0 / direct=3 / weightb=1 / open_gop=0 / weightp=2 / keyint=240 / keyint_min=24 / scenecut=40 / intra_refresh=0 / rc_lookahead=40 / rc=2pass / mbtree=1 / bitrate=5760 / ratetol=1.0 / qcomp=0.60 / qpmin=0 / qpmax=69 / qpstep=4 / cplxblur=20.0 / qblur=0.5 / vbv_maxrate=20000 / vbv_bufsize=25000 / nal_hrd=none / filler=0 / ip_ratio=1.40 / aq=1:1.00
Default : Yes
Forced : No
Color range : Limited
Color primaries : BT.709
Transfer characteristics : BT.709
Matrix coefficients : BT.709
Statistics Tags Issue : mkvmerge v31.0.0 ('Dolores In A Shoestand') 64-bit 2019-03-10 03:13:02 / mkvmerge v31.0.0 ('Dolores In A Shoestand') 64-bit 2019-03-10 03:13:02 / UTC 2019-03-09T11:21:45Z
FromStats_BitRate : 5751560
FromStats_Duration : 01:55:25.836000000
FromStats_FrameCount : 166054
FromStats_StreamSize : 4979295994

Audio #1
ID : 2
Format : AC-3
Format/Info : Audio Coding 3
Format settings, Endianness : Big
Codec ID : A_AC3
Duration : 1 h 55 min
Bit rate mode : Constant
Bit rate : 448 kb/s
Channel(s) : 6 channels
Channel positions : Front: L C R, Side: L R, LFE
Sampling rate : 48.0 kHz
Frame rate : 31.250 FPS (1536 SPF)
Bit depth : 16 bits
Compression mode : Lossy
Stream size : 370 MiB (7%)
Title : Surround
Language : English
Service kind : Complete Main
Default : Yes
Forced : No
Statistics Tags Issue : mkvmerge v31.0.0 ('Dolores In A Shoestand') 64-bit 2019-03-10 03:13:02 / mkvmerge v31.0.0 ('Dolores In A Shoestand') 64-bit 2019-03-10 03:13:02 / UTC 2019-03-09T11:21:45Z
FromStats_BitRate : 448000
FromStats_Duration : 01:55:25.824000000
FromStats_FrameCount : 216432
FromStats_StreamSize : 387846144

Audio #2
ID : 3
Format : AC-3
Format/Info : Audio Coding 3
Format settings, Endianness : Big
Codec ID : A_AC3
Duration : 1 h 55 min
Bit rate mode : Constant
Bit rate : 192 kb/s
Channel(s) : 2 channels
Channel positions : Front: L R
Sampling rate : 48.0 kHz
Frame rate : 31.250 FPS (1536 SPF)
Bit depth : 16 bits
Compression mode : Lossy
Stream size : 159 MiB (3%)
Title : Stereo commentary by Director Brad Bird and Producer John Walker
Language : English
Service kind : Complete Main
Default : No
Forced : No
Statistics Tags Issue : mkvmerge v31.0.0 ('Dolores In A Shoestand') 64-bit 2019-03-10 03:13:02 / mkvmerge v31.0.0 ('Dolores In A Shoestand') 64-bit 2019-03-10 03:13:02 / UTC 2019-03-09T11:21:45Z
FromStats_BitRate : 192000
FromStats_Duration : 01:55:25.760000000
FromStats_FrameCount : 216430
FromStats_StreamSize : 166218240

Audio #3
ID : 4
Format : AC-3
Format/Info : Audio Coding 3
Format settings, Endianness : Big
Codec ID : A_AC3
Duration : 1 h 55 min
Bit rate mode : Constant
Bit rate : 192 kb/s
Channel(s) : 2 channels
Channel positions : Front: L R
Sampling rate : 48.0 kHz
Frame rate : 31.250 FPS (1536 SPF)
Bit depth : 16 bits
Compression mode : Lossy
Stream size : 159 MiB (3%)
Title : Stereo commentary by supervising animators
Language : English
Service kind : Complete Main
Default : No
Forced : No
Statistics Tags Issue : mkvmerge v31.0.0 ('Dolores In A Shoestand') 64-bit 2019-03-10 03:13:02 / mkvmerge v31.0.0 ('Dolores In A Shoestand') 64-bit 2019-03-10 03:13:02 / UTC 2019-03-09T11:21:45Z
FromStats_BitRate : 192000
FromStats_Duration : 01:55:25.760000000
FromStats_FrameCount : 216430
FromStats_StreamSize : 166218240

Text
ID : 5
Format : UTF-8
Codec ID : S_TEXT/UTF8
Codec ID/Info : UTF-8 Plain Text
Language : English
Default : Yes
Forced : No
Statistics Tags Issue : mkvmerge v31.0.0 ('Dolores In A Shoestand') 64-bit 2019-03-10 03:13:02 / mkvmerge v31.0.0 ('Dolores In A Shoestand') 64-bit 2019-03-10 03:13:02 / UTC 2019-03-09T11:21:45Z
FromStats_BitRate : 62
FromStats_Duration : 01:47:22.852000000
FromStats_FrameCount : 1334
FromStats_StreamSize : 50405

Menu
00:00:00.000 : :Golden Age
00:09:14.554 : :Weddings & Lawsuits
00:11:32.817 : :15 Years and 50 Pounds Later
00:13:31.477 : :After School
00:17:08.653 : :Family Dinner
00:20:44.994 : :2 Ex-Supers
00:26:53.529 : :A Super Defeated
00:30:42.341 : :Help Wanted
00:34:54.676 : :Nomanisan
00:41:27.235 : :New and Improved
00:46:01.676 : :Helen Suspects
00:48:54.515 : :Helen & E
00:50:02.249 : :An Important Meeting
00:54:01.905 : :E's Lab
00:57:09.635 : :Secrets Revealed
01:00:35.799 : :Suiting Up
01:05:04.943 : :Missile Lock
01:10:53.708 : :Out to Sea
01:12:58.040 : :Good Guys/Bad Girls
01:16:27.583 : :Elastigirl Returns
01:19:19.213 : :Caves & Rockets
01:21:13.911 : :Lost & Found
01:23:59.660 : :100 Mile Dash
01:27:05.637 : :Reunited
01:30:29.841 : :Bob's Confession
01:32:47.395 : :Frozone & Honey
01:33:33.024 : :Omnidroid Attacks
01:34:30.540 : :Road Trip
01:37:03.151 : :The Incredibles vs. the Omnidroid
01:41:58.195 : :Past vs. Future
01:45:40.125 : :Happy Endings
01:47:33.322 : :End Credits





The Incredibles (2004)


The Incredibles (2004)


The Incredibles (2004)


The Incredibles (2004)


The Incredibles (2004)