The Last Warrior (2017)

Posted By: Tavaz
720p (HD) / BDRip IMDb
The Last Warrior (2017)

The Last Warrior (2017)
BDRip | MKV | 1280x536 | Russian | H264 @ 7464 kbps | AC-3 @ 448 kbps | 1 h 53 min | 6.30 GiB
Subtitles: English
Genre: Action, Family, Fantasy

ivan is an ordinary guy who is transferred from modern Moscow to the fantasy world Belogorye. in this parallel universe where characters of russian fairy tales live, magic is an integral part of the daily life, and arguments are settled with the help of sword ght. Unexpectedly, ivan nds himself in the middle of the battle between the good and evil. He has to nd out why everyone thinks that he should play the main role in the occurring events…

0ab7c640d6cd46678349196e37dd73ef.mkv (6.3 GB)



General
Complete name : ./0ab7c640d6cd46678349196e37dd73ef.mkv
Format : Matroska
Format version : Version 4 / Version 2
File size : 6.30 GiB
Duration : 1 h 53 min
Overall bit rate : 7 914 kb/s
Encoded date : UTC 2018-02-20 13:39:33
Writing application : mkvmerge v14.0.0 ('Flow') 64bit
Writing library : libebml v1.3.4 + libmatroska v1.4.5

Video
ID : 1
Format : AVC
Format/Info : Advanced Video Codec
Format profile : High@L4.1
Format settings : CABAC / 12 Ref Frames
Format settings, CABAC : Yes
Format settings, RefFrames : 12 frames
Codec ID : V_MPEG4/ISO/AVC
Duration : 1 h 53 min
Bit rate : 7 464 kb/s
Width : 1 280 pixels
Height : 536 pixels
Display aspect ratio : 2.40:1
Frame rate mode : Constant
Frame rate : 24.000 FPS
Color space : YUV
Chroma subsampling : 4:2:0
Bit depth : 8 bits
Scan type : Progressive
Bits/(Pixel*Frame) : 0.453
Stream size : 5.94 GiB (94%)
Writing library : x264 core 152 r2851 ba24899
Encoding settings : cabac=1 / ref=12 / deblock=1:-3:-3 / analyse=0x3:0x133 / me=umh / subme=10 / psy=1 / psy_rd=1.00:0.00 / mixed_ref=1 / me_range=32 / chroma_me=1 / trellis=2 / 8x8dct=1 / cqm=0 / deadzone=21,11 / fast_pskip=0 / chroma_qp_offset=-2 / threads=6 / lookahead_threads=1 / sliced_threads=0 / nr=0 / decimate=0 / interlaced=0 / bluray_compat=0 / constrained_intra=0 / bframes=10 / b_pyramid=2 / b_adapt=2 / b_bias=0 / direct=3 / weightb=1 / open_gop=0 / weightp=2 / keyint=250 / keyint_min=24 / scenecut=40 / intra_refresh=0 / rc_lookahead=60 / rc=crf / mbtree=0 / crf=14.7 / qcomp=0.60 / qpmin=0 / qpmax=69 / qpstep=4 / vbv_maxrate=62500 / vbv_bufsize=78125 / crf_max=0.0 / nal_hrd=none / filler=0 / ip_ratio=1.30 / pb_ratio=1.20 / aq=3:0.75
Default : Yes
Forced : No

Audio
ID : 2
Format : AC-3
Format/Info : Audio Coding 3
Format settings, Endianness : Big
Codec ID : A_AC3
Duration : 1 h 53 min
Bit rate mode : Constant
Bit rate : 448 kb/s
Channel(s) : 6 channels
Channel positions : Front: L C R, Side: L R, LFE
Sampling rate : 48.0 kHz
Frame rate : 31.250 FPS (1536 SPF)
Bit depth : 16 bits
Compression mode : Lossy
Stream size : 365 MiB (6%)
Language : Russian
Service kind : Complete Main
Default : Yes
Forced : No

Text
ID : 3
Format : UTF-8
Codec ID : S_TEXT/UTF8
Codec ID/Info : UTF-8 Plain Text
Duration : 1 h 45 min
Bit rate : 37 b/s
Count of elements : 1054
Stream size : 28.7 KiB (0%)
Language : English
Default : Yes
Forced : No





The Last Warrior (2017)


The Last Warrior (2017)


The Last Warrior (2017)


The Last Warrior (2017)


The Last Warrior (2017)