The Looney, Looney, Looney Bugs Bunny Movie (1981)

Posted By: Tavaz
1080p (FullHD) / WEB-DL IMDb
The Looney, Looney, Looney Bugs Bunny Movie (1981)

The Looney, Looney, Looney Bugs Bunny Movie (1981)
WEB-DL | MKV | 1920x1080 | English | H264 @ 13730 kbps | E-AC-3 @ 224 kbps | 1 h 19 min | 7.76 GiB
Subtitles: English
Genre: Animation, Comedy, Family

Bugs Bunny hosts an award show featuring several classic Looney Tunes shorts and characters. This movie was released in 1981 by Warner Bros. and was produced by Friz Freleng. New footage was one of the final productions done by DePatie-Freleng Enterprises (also known as Marvel Productions beginning in the 1980s) and the film was re-released in the USA on April 28, 2009 from Warner Home Video.

The.Looney.Looney.Looney.Bugs.Bunny.Movie.1981.1080p.AMZN.WEB-DL.DD+2.0.H264-SiGMA.mkv (7.8 GB)



General
Unique ID : 304984366269190242579847877401097650340 (0xE571DA340DCDBC8EA5699015D9EDC0A4)
Complete name : ./The.Looney.Looney.Looney.Bugs.Bunny.Movie.1981.1080p.AMZN.WEB-DL.DD+2.0.H264-SiGMA.mkv
Format : Matroska
Format version : Version 4 / Version 2
File size : 7.76 GiB
Duration : 1 h 19 min
Overall bit rate mode : Variable
Overall bit rate : 14.0 Mb/s
Encoded date : UTC 2018-04-15 19:08:43
Writing application : mkvmerge v19.0.0 ('Brave Captain') 64-bit
Writing library : libebml v1.3.5 + libmatroska v1.4.8

Video
ID : 1
Format : AVC
Format/Info : Advanced Video Codec
Format profile : High@L4
Format settings : CABAC / 4 Ref Frames
Format settings, CABAC : Yes
Format settings, RefFrames : 4 frames
Codec ID : V_MPEG4/ISO/AVC
Duration : 1 h 19 min
Bit rate mode : Variable
Bit rate : 13.7 Mb/s
Maximum bit rate : 15.0 Mb/s
Width : 1 920 pixels
Height : 1 080 pixels
Display aspect ratio : 16:9
Frame rate mode : Constant
Frame rate : 23.976 (24000/1001) FPS
Color space : YUV
Chroma subsampling : 4:2:0
Bit depth : 8 bits
Scan type : Progressive
Bits/(Pixel*Frame) : 0.276
Stream size : 7.63 GiB (98%)
Writing library : x264 core 148 r2623 d5b2374
Encoding settings : cabac=1 / ref=4 / deblock=1:-1:-1 / analyse=0x3:0x133 / me=umh / subme=9 / psy=1 / psy_rd=1.00:0.15 / mixed_ref=1 / me_range=24 / chroma_me=1 / trellis=2 / 8x8dct=1 / cqm=0 / deadzone=21,11 / fast_pskip=1 / chroma_qp_offset=-3 / threads=34 / lookahead_threads=5 / sliced_threads=0 / nr=150 / decimate=1 / interlaced=0 / bluray_compat=0 / constrained_intra=0 / bframes=8 / b_pyramid=2 / b_adapt=2 / b_bias=0 / direct=3 / weightb=1 / open_gop=0 / weightp=2 / keyint=120 / keyint_min=61 / scenecut=0 / intra_refresh=0 / rc_lookahead=120 / rc=crf / mbtree=1 / crf=18.0 / qcomp=0.60 / qpmin=0 / qpmax=69 / qpstep=4 / vbv_maxrate=15000 / vbv_bufsize=31250 / crf_max=0.0 / nal_hrd=vbr / filler=0 / ip_ratio=1.40 / aq=3:1.00
Default : Yes
Forced : No
Color range : Limited
Color primaries : BT.709
Transfer characteristics : BT.709
Matrix coefficients : BT.709

Audio
ID : 2
Format : E-AC-3
Format/Info : Enhanced Audio Coding 3
Format settings, Endianness : Big
Codec ID : A_EAC3
Duration : 1 h 19 min
Bit rate mode : Constant
Bit rate : 224 kb/s
Channel(s) : 2 channels
Channel positions : Front: L R
Sampling rate : 48.0 kHz
Frame rate : 187.500 FPS (256 SPF)
Compression mode : Lossy
Stream size : 128 MiB (2%)
Language : English
Service kind : Complete Main
Default : Yes
Forced : No

Text
ID : 3
Format : UTF-8
Codec ID : S_TEXT/UTF8
Codec ID/Info : UTF-8 Plain Text
Duration : 1 h 17 min
Bit rate : 56 b/s
Count of elements : 1307
Stream size : 32.5 KiB (0%)
Language : English
Default : No
Forced : No





The Looney, Looney, Looney Bugs Bunny Movie (1981)


The Looney, 			  		  	   		  		  	 			   		  	   		      	 			   		  	   		 	 	  	 			   		   	  		  	   		  	 			 Looney, Looney Bugs Bunny Movie (1981)


The Looney, Looney, Looney Bugs Bunny Movie (1981)


The Looney, Looney, Looney Bugs Bunny Movie (1981)


The Looney, Looney, Looney Bugs Bunny Movie (1981)