The Man Nobody Knew: In Search of My Father, CIA Spymaster William Colby (2011)

Posted By: Tutorial
The Man Nobody Knew: In Search of My Father, CIA Spymaster William Colby (2011)

The Man Nobody Knew: In Search of My Father, CIA Spymaster William Colby (2011)
BRRip | 720 x 400 | .AVI/XviD @ 1597 Kbps | 1h 44mn | 1.31 GB
Audio: English MP3 192 Kbps, 2 channels | Subs: English
Genre: Documentary, Biography, History

A son's riveting look at a father whose life seemed straight out of a spy thriller. The secret world of a legendary CIA spymaster. Told by William Colby's son Carl, the story is at once a probing history of the CIA, a personal memoir of a family living in clandestine shadows, and an inquiry into the hard costs of a nation's most cloaked actions.
Director: Carl Colby
More info: IMDB

General
Complete name : The.Man.Nobody.Knew.In.Search.of.My.Father.CIA.Spymaster.William.Colby.2011.avi
Format : AVI
Format/Info : Audio Video Interleave
Format profile : OpenDML
File size : 1.31 GiB
Duration : 1h 44mn
Overall bit rate : 1 804 Kbps
Movie name : RARBG.COM - The.Man.Nobody.Knew.In.Search.of.My.Father.CIA.Spymaster.William.Colby.2011.BRRip.XviD.MP3-RARBG
Writing application : Lavf56.40.101
Comment : RARBG.COM - The.Man.Nobody.Knew.In.Search.of.My.Father.CIA.Spymaster.William.Colby.2011.BRRip.XviD.MP3-RARBG

Video
ID : 0
Format : MPEG-4 Visual
Format profile : Simple@L5
Format settings, BVOP : No
Format settings, QPel : No
Format settings, GMC : No warppoints
Format settings, Matrix : Default (H.263)
Codec ID : XVID
Codec ID/Hint : XviD
Duration : 1h 44mn
Bit rate : 1 597 Kbps
Width : 720 pixels
Height : 400 pixels
Display aspect ratio : 16:9
Frame rate : 23.976 fps
Color space : YUV
Chroma subsampling : 4:2:0
Bit depth : 8 bits
Scan type : Progressive
Compression mode : Lossy
Bits/(Pixel*Frame) : 0.231
Stream size : 1.16 GiB (89%)
Title : RARBG.COM - The.Man.Nobody.Knew.In.Search.of.My.Father.CIA.Spymaster.William.Colby.2011.BRRip.XviD.MP3-RARBG
Writing library : Lavc56.60.100

Audio
ID : 1
Format : MPEG Audio
Format version : Version 1
Format profile : Layer 3
Mode : Joint stereo
Mode extension : MS Stereo
Codec ID : 55
Codec ID/Hint : MP3
Duration : 1h 44mn
Bit rate mode : Constant
Bit rate : 192 Kbps
Channel(s) : 2 channels
Sampling rate : 48.0 KHz
Compression mode : Lossy
Stream size : 143 MiB (11%)
Alignment : Aligned on interleaves
Interleave, duration : 24 ms (0.58 video frame)
Interleave, preload duration : 24 ms
Title : RARBG.COM - The.Man.Nobody.Knew.In.Search.of.My.Father.CIA.Spymaster.William.Colby.2011.BRRip.XviD.MP3-RARBG
Writing library : LAME3.99.5
Screenshots

The Man Nobody Knew: In Search of My Father, CIA Spymaster William Colby (2011)

The Man Nobody Knew: In Search of My Father, CIA Spymaster William Colby (2011)

The Man Nobody Knew: In Search of My Father, CIA Spymaster William Colby (2011)

Welcome to my blog - daily update!

The Man Nobody Knew: In Search of My Father, CIA Spymaster William Colby (2011)