ITV - The Nation's Favourite Beatles Number One (2015)

Posted By: Tutorial
ITV - The Nation's Favourite Beatles Number One (2015)

ITV - The Nation's Favourite Beatles Number One (2015)
WEBRip | 896 x 504 | .MP4/AVC @ 1499 Kbps | 1h 32mn | English AAC 96.0 Kbps, 2 channels | 1.03 GB
Genre: Documentary

Special programme celebrating the classic chart-topping songs of the most successful band in history, counting down the results of an exclusive poll.
Which of the Fab Four's 27 chart-toppers from the UK and the US has been voted the nation's favourite Beatles number one? From She Loves You to Hey Jude, Day Tripper to The Ballad of John and Yoko, and I Want to Hold Your Hand to Let It Be, the programme tells the stories behind some of the band's most enduring hits, which were all written within an eight-year period in the 1960s. The programme hears stories from those who knew the band best, as well as praise from famous fans across the generations - including model Twiggy, ABBA's Bjorn Ulvaeus, singer Sandie Shaw, contemporary singer-songwriters Jake Bugg, George Ezra and Corinne Bailey Rae, musical mastermind Jools Holland, and Manfred Mann's Paul Jones.

General
Complete name : The.Nations.Favourite.Beatles.Number.One.mp4
Format : MPEG-4
Format profile : Base Media
Codec ID : isom
File size : 1.03 GiB
Duration : 1h 32mn
Overall bit rate : 1 601 Kbps
Movie name : The Nation's Favourite Beatles Number One - Episode 1
Performer : ITV
Tagged date : UTC 2015-11-12 00:47:37
Writing application : Lavf54.63.104
Cover : Yes
Comment : Special programme featuring the results of an exclusive poll of the Fab Four's 27 transatlantic chart-toppers. Which song will come out on top? With contributions from famous fans.
stik : 10
tvnn : ITV
tvsh : The Nation's Favourite Beatles Number One
tvsn : 1
tves : 1
tven : The Nation's Favourite Beatles Number One
desc : Special programme featuring the results of an exclusive poll of the Fab Four's 27 transatlantic chart-toppers. Which song will come out on top? With contributions from famous fans.
ldes : Special programme featuring the results of an exclusive poll of the Fab Four's 27 transatlantic chart-toppers. Which song will come out on top? With contributions from famous fans.
©lyr : Special programme featuring the results of an exclusive poll of the Fab Four's 27 transatlantic chart-toppers. Which song will come out on top? With contributions from famous fans.

Video
ID : 1
Format : AVC
Format/Info : Advanced Video Codec
Format profile : High@L3.1
Format settings, CABAC : Yes
Format settings, ReFrames : 6 frames
Codec ID : avc1
Codec ID/Info : Advanced Video Coding
Duration : 1h 32mn
Bit rate : 1 499 Kbps
Nominal bit rate : 1 704 Kbps
Width : 896 pixels
Height : 504 pixels
Display aspect ratio : 16:9
Frame rate mode : Constant
Frame rate : 25.000 fps
Color space : YUV
Chroma subsampling : 4:2:0
Bit depth : 8 bits
Scan type : Progressive
Bits/(Pixel*Frame) : 0.133
Stream size : 987 MiB (94%)
Writing library : x264 core 129
Encoding settings : cabac=1 / ref=6 / deblock=1:-1:-1 / analyse=0x3:0x113 / me=umh / subme=8 / psy=1 / psy_rd=0.60:1.00 / mixed_ref=1 / me_range=16 / chroma_me=1 / trellis=2 / 8x8dct=1 / cqm=0 / deadzone=21,11 / fast_pskip=1 / chroma_qp_offset=-4 / threads=7 / lookahead_threads=1 / sliced_threads=0 / nr=0 / decimate=1 / interlaced=0 / bluray_compat=0 / constrained_intra=0 / bframes=3 / b_pyramid=0 / b_adapt=2 / b_bias=0 / direct=3 / weightb=1 / open_gop=0 / weightp=2 / keyint=150 / keyint_min=15 / scenecut=0 / intra_refresh=0 / rc_lookahead=60 / rc=cbr / mbtree=1 / bitrate=1704 / ratetol=1.0 / qcomp=0.60 / qpmin=0 / qpmax=69 / qpstep=4 / vbv_maxrate=1704 / vbv_bufsize=1278 / nal_hrd=none / ip_ratio=1.40 / aq=1:1.40

Audio
ID : 2
Format : AAC
Format/Info : Advanced Audio Codec
Format profile : LC
Codec ID : 40
Duration : 1h 32mn
Bit rate mode : Constant
Bit rate : 96.0 Kbps
Channel(s) : 2 channels
Channel positions : Front: L R
Sampling rate : 48.0 KHz
Compression mode : Lossy
Stream size : 63.3 MiB (6%)
Screenshots

ITV - The Nation's Favourite Beatles Number One (2015)

ITV - The Nation's Favourite Beatles Number One (2015)

ITV - The Nation's Favourite Beatles Number One (2015)

ITV - The Nation's Favourite Beatles Number One (2015)

Welcome to my blog - daily update!

ITV - The Nation's Favourite Beatles Number One (2015)