Tags
Language
Tags

The Night Shift S03E02 (2016)

Posted By: Limon4iK
The Night Shift S03E02 (2016)

The Night Shift S03E02 (2016)
HDTV 720p | MKV / AVC@2839 Kbps | 1280x720 | 00:41:32 | 977 MB
English: AC-3, 384 Kbps (6 channels)
Genre: Drama

A group of doctors from the Army return to work the night shift at a hospital in San Antonio.

Country:United States
Release Date:June 1, 2016
Genres: Drama
Created by:Gabe Sachs, Jeff Judah.
Cast: Eoin Macken as Dr. TC Callahan, Jill Flint as Dr. Jordan Alexander, Ken Leung as Dr. Topher Zia, Brendan Fehr as Dr. Drew Alister, Robert Bailey Jr. as Dr. Paul Cummings, JR Lemon as ER Nurse Kenny Fournette, Scott Wolf as Dr. Scott Clemmens, Tanaya Beatty as Dr. Shannon Beatty.
Running time: 43 minutes
Language:English

Episode 2 | S03 E02 “The Thing with Feathers”

IMDB - 3 wins & 1 nomination


General
Complete name : The.Night.Shift.S03E02.720p.HDTV.x264.mkv
Format : Matroska
Format version : Version 2
File size : 977 MiB
Duration : 00:41:32
Overall bit rate : 3 289 Kbps
Writing application : x264.exe
Writing library : mkv2rls x264-tv version built on 2016. apr. 10

Video
ID : 1
Format : AVC
Format/Info : Advanced Video Codec
Format profile : High@L4.1
Format settings, CABAC : Yes
Format settings, ReFrames : 5 frames
Codec ID : V_MPEG4/ISO/AVC
Duration : 00:41:32
Bit rate : 2 839 Kbps
Width : 1 280 pixels
Height : 720 pixels
Display aspect ratio : 16:9
Frame rate mode : Constant
Frame rate : 23.976 (24000/1001) fps
Color space : YUV
Chroma subsampling : 4:2:0
Bit depth : 8 bits
Scan type : Progressive
Bits/(Pixel*Frame) : 0.128
Stream size : 844 MiB (86%)
Writing library : x264 core 148 r2694 3b70645
Encoding settings : cabac=1 / ref=5 / deblock=1:-2:-2 / analyse=0x3:0x113 / me=umh / subme=8 / psy=1 / psy_rd=1.05:0.00 / mixed_ref=1 / me_range=16 / chroma_me=1 / trellis=1 / 8x8dct=1 / cqm=0 / deadzone=21,11 / fast_pskip=1 / chroma_qp_offset=-2 / threads=18 / lookahead_threads=3 / sliced_threads=0 / nr=0 / decimate=1 / interlaced=0 / bluray_compat=0 / constrained_intra=0 / bframes=3 / b_pyramid=2 / b_adapt=2 / b_bias=0 / direct=3 / weightb=1 / open_gop=0 / weightp=2 / keyint=250 / keyint_min=23 / scenecut=40 / intra_refresh=0 / rc_lookahead=50 / rc=crf / mbtree=1 / crf=18.0 / qcomp=0.70 / qpmin=0 / qpmax=69 / qpstep=4 / ip_ratio=1.40 / aq=1:0.70
Language : English
Default : Yes
Forced : No

Audio
ID : 2
Format : AC-3
Format/Info : Audio Coding 3
Mode extension : CM (complete main)
Format settings, Endianness : Big
Codec ID : A_AC3
Duration : 00:41:32
Bit rate mode : Constant
Bit rate : 384 Kbps
Channel(s) : 6 channels
Channel positions : Front: L C R, Side: L R, LFE
Sampling rate : 48.0 KHz
Frame rate : 31.250 fps (1536 spf)
Compression mode : Lossy
Stream size : 114 MiB (12%)
Language : English
Default : Yes
Forced : No

Text
ID : 3
Format : UTF-8
Codec ID : S_TEXT/UTF8
Codec ID/Info : UTF-8 Plain Text
Title : English
Language : English
Default : No
Forced : No


Screenshots

The Night Shift S03E02 (2016)

The Night Shift S03E02 (2016)

The Night Shift S03E02 (2016)

The Night Shift S03E02 (2016)