The One Warrior (2011)

Posted By: Tavaz
1080p (FullHD) / BDRip IMDb
The One Warrior (2011)

The One Warrior (2011)
BDRip | MKV | 1920x1080 | English | H264 @ 8347 kbps | DTS @ 768 kbps | 1 h 30 min | 5.86 GiB
Genre: Action, Adventure, Fantasy

The One Warrior is a fantasy/action piece that is loosely based on video adventure games. In our story, the character of The One Warrior finds himself in a mythical world where he must destroy the Evil Lord Shoukata, but to do so he must first fight his way through many challenges. These include dragons, the cursed swords of Damacleus, the Samurai Six, the Amazon Warriors, and much, much more. With each level he passes through, the more powerful he becomes until the end where we realize it is really a man who may have been testing a new video game. Or was it? The truth may never be known. Written by Jewel A

d3fd5cf46d2f4fc98252b826934827f3.mkv (5.9 GB)



General
Complete name : ./d3fd5cf46d2f4fc98252b826934827f3.mkv
Format : Matroska
Format version : Version 4 / Version 2
File size : 5.86 GiB
Duration : 1 h 30 min
Overall bit rate : 9 300 kb/s
Encoded date : UTC 2017-04-22 12:37:05
Writing application : mkvmerge v9.9.0 ('Pick Up') 64bit
Writing library : libebml v1.3.4 + libmatroska v1.4.5
Cover : Yes
Attachments : small_cover.jpg / small_cover_land.jpg / cover.jpg / cover_land.jpg

Video
ID : 1
Format : AVC
Format/Info : Advanced Video Codec
Format profile : High@L4.1
Format settings : CABAC / 4 Ref Frames
Format settings, CABAC : Yes
Format settings, RefFrames : 4 frames
Codec ID : V_MPEG4/ISO/AVC
Duration : 1 h 30 min
Bit rate : 8 347 kb/s
Width : 1 920 pixels
Height : 1 080 pixels
Display aspect ratio : 16:9
Frame rate mode : Constant
Frame rate : 23.976 (24000/1001) FPS
Color space : YUV
Chroma subsampling : 4:2:0
Bit depth : 8 bits
Scan type : Progressive
Bits/(Pixel*Frame) : 0.168
Stream size : 5.26 GiB (90%)
Writing library : x264 core 128 r2216 198a7ea
Encoding settings : cabac=1 / ref=4 / deblock=1:-1:-1 / analyse=0x3:0x113 / me=umh / subme=7 / psy=1 / psy_rd=1.00:0.15 / mixed_ref=1 / me_range=16 / chroma_me=1 / trellis=1 / 8x8dct=1 / cqm=0 / deadzone=21,11 / fast_pskip=0 / chroma_qp_offset=-3 / threads=18 / lookahead_threads=3 / sliced_threads=0 / nr=0 / decimate=1 / interlaced=0 / bluray_compat=0 / constrained_intra=0 / bframes=3 / b_pyramid=2 / b_adapt=1 / b_bias=0 / direct=1 / weightb=1 / open_gop=0 / weightp=2 / keyint=250 / keyint_min=23 / scenecut=40 / intra_refresh=0 / rc_lookahead=40 / rc=crf / mbtree=1 / crf=20.0 / qcomp=0.60 / qpmin=0 / qpmax=69 / qpstep=4 / ip_ratio=1.40 / aq=1:1.00
Default : Yes
Forced : No

Audio
ID : 2
Format : DTS
Format/Info : Digital Theater Systems
Mode : 16
Format settings, Endianness : Big
Codec ID : A_DTS
Duration : 1 h 30 min
Bit rate mode : Constant
Bit rate : 768 kb/s
Channel(s) : 6 channels
Channel positions : Front: L C R, Side: L R, LFE
Sampling rate : 48.0 kHz
Frame rate : 93.750 FPS (512 SPF)
Bit depth : 24 bits
Compression mode : Lossy
Stream size : 495 MiB (8%)
Language : English
Default : Yes
Forced : No





The One Warrior (2011)


The One Warrior (2011)


The One Warrior (2011)


The One Warrior (2011)


The One Warrior (2011)