Tags
Language
Tags

The Picture of Dorian Gray (1945)

Posted By: Tavaz
1080p (FullHD) / BDRip IMDb
The Picture of Dorian Gray (1945)

The Picture of Dorian Gray (1945)
BDRip | MKV | 1920x1080 | English | H264 @ 5760 kbps | AC-3 @ 160 kbps | 1 h 50 min | 4.71 GiB
Subtitles: English
Genre: Drama, Fantasy, Horror, Thriller

Posing for a portrait, Dorian Gray talks with Lord Henry Wotton, who says that men should pursue their sensual longings, but laments that only the young get to do so. Taken with the idea, Dorian imagines a scenario in which the painting will age as he stays youthful. His wish comes true, and his boyish looks aid him as he indulges his every whim. But when a stunning revelation forces him to see what he's become, Dorian faces some very dangerous questions.

a841fe22a82a86821563d7772ad5e775.mkv (4.7 GB)



General
Complete name : ./a841fe22a82a86821563d7772ad5e775.mkv
Format : Matroska
Format version : Version 4 / Version 2
File size : 4.71 GiB
Duration : 1 h 50 min
Overall bit rate : 6 113 kb/s
Encoded date : UTC 2020-10-28 21:04:15 / UTC 2020-10-27T11:16:08Z
Writing application : mkvmerge v47.0.0 ('Black Flag') 64-bit
Writing library : libebml v1.3.10 + libmatroska v1.5.2 / Lavf57.7.2

Video
ID : 1
Format : AVC
Format/Info : Advanced Video Codec
Format profile : High@L4
Format settings : CABAC / 4 Ref Frames
Format settings, CABAC : Yes
Format settings, RefFrames : 4 frames
Codec ID : V_MPEG4/ISO/AVC
Duration : 1 h 50 min
Bit rate : 5 760 kb/s
Width : 1 920 pixels
Height : 1 080 pixels
Display aspect ratio : 16:9
Frame rate mode : Constant
Frame rate : 23.976 (24000/1001) FPS
Color space : YUV
Chroma subsampling : 4:2:0
Bit depth : 8 bits
Scan type : Progressive
Bits/(Pixel*Frame) : 0.116
Stream size : 4.34 GiB (92%)
Writing library : x264 core 155 r2901 7d0ff22
Encoding settings : cabac=1 / ref=4 / deblock=1:-3:-3 / analyse=0x3:0x133 / me=umh / subme=9 / psy=1 / psy_rd=1.10:0.25 / mixed_ref=1 / me_range=32 / chroma_me=1 / trellis=2 / 8x8dct=1 / cqm=0 / deadzone=6,6 / fast_pskip=1 / chroma_qp_offset=-4 / threads=34 / lookahead_threads=3 / sliced_threads=0 / nr=0 / decimate=1 / interlaced=0 / bluray_compat=0 / constrained_intra=0 / bframes=6 / b_pyramid=2 / b_adapt=2 / b_bias=0 / direct=3 / weightb=1 / open_gop=0 / weightp=2 / keyint=240 / keyint_min=24 / scenecut=40 / intra_refresh=0 / rc_lookahead=40 / rc=2pass / mbtree=1 / bitrate=5760 / ratetol=1.0 / qcomp=0.60 / qpmin=0 / qpmax=69 / qpstep=4 / cplxblur=20.0 / qblur=0.5 / vbv_maxrate=20000 / vbv_bufsize=25000 / nal_hrd=none / filler=0 / ip_ratio=1.40 / aq=1:1.00
Language : English
Default : Yes
Forced : No
Color range : Limited
Color primaries : BT.709
Transfer characteristics : BT.709
Matrix coefficients : BT.709
Statistics Tags Issue : mkvmerge v47.0.0 ('Black Flag') 64-bit 2020-10-28 21:04:15 / mkvmerge v47.0.0 ('Black Flag') 64-bit 2020-10-28 21:04:15 / UTC 2020-10-27T11:16:08Z
FromStats_BitRate : 5759443
FromStats_Duration : 01:50:16.610000000
FromStats_FrameCount : 158640
FromStats_StreamSize : 4763499296

Audio #1
ID : 2
Format : AC-3
Format/Info : Audio Coding 3
Format settings, Endianness : Big
Codec ID : A_AC3
Duration : 1 h 50 min
Bit rate mode : Constant
Bit rate : 160 kb/s
Channel(s) : 2 channels
Channel positions : Front: L R
Sampling rate : 48.0 kHz
Frame rate : 31.250 FPS (1536 SPF)
Bit depth : 16 bits
Compression mode : Lossy
Delay relative to video : -5 ms
Stream size : 126 MiB (3%)
Title : Stereo
Language : English
Service kind : Complete Main
Default : Yes
Forced : No
Statistics Tags Issue : mkvmerge v47.0.0 ('Black Flag') 64-bit 2020-10-28 21:04:15 / mkvmerge v47.0.0 ('Black Flag') 64-bit 2020-10-28 21:04:15 / UTC 2020-10-27T11:16:08Z
FromStats_BitRate : 160000
FromStats_Duration : 01:50:16.608000000
FromStats_FrameCount : 206769
FromStats_StreamSize : 132332160

Audio #2
ID : 3
Format : AC-3
Format/Info : Audio Coding 3
Format settings, Endianness : Big
Codec ID : A_AC3
Duration : 1 h 50 min
Bit rate mode : Constant
Bit rate : 192 kb/s
Channel(s) : 2 channels
Channel positions : Front: L R
Sampling rate : 48.0 kHz
Frame rate : 31.250 FPS (1536 SPF)
Bit depth : 16 bits
Compression mode : Lossy
Stream size : 151 MiB (3%)
Title : Stereo commentary
Language : English
Service kind : Complete Main
Default : No
Forced : No
Statistics Tags Issue : mkvmerge v47.0.0 ('Black Flag') 64-bit 2020-10-28 21:04:15 / mkvmerge v47.0.0 ('Black Flag') 64-bit 2020-10-28 21:04:15 / UTC 2020-10-27T11:16:08Z
FromStats_BitRate : 192000
FromStats_Duration : 01:50:17.024000000
FromStats_FrameCount : 206782
FromStats_StreamSize : 158808576

Text
ID : 4
Format : UTF-8
Codec ID : S_TEXT/UTF8
Codec ID/Info : UTF-8 Plain Text
Language : English
Default : Yes
Forced : No
Statistics Tags Issue : mkvmerge v47.0.0 ('Black Flag') 64-bit 2020-10-28 21:04:15 / mkvmerge v47.0.0 ('Black Flag') 64-bit 2020-10-28 21:04:15 / UTC 2020-10-27T11:16:08Z
FromStats_BitRate : 89
FromStats_Duration : 01:47:01.581000000
FromStats_FrameCount : 1423
FromStats_StreamSize : 71751

Menu
00:00:00.000 : :Chapter 1
00:01:39.182 : :Chapter 2
00:06:19.462 : :Chapter 3
00:11:03.746 : :Chapter 4
00:13:09.789 : :Chapter 5
00:18:36.115 : :Chapter 6
00:23:34.955 : :Chapter 7
00:25:43.500 : :Chapter 8
00:29:04.743 : :Chapter 9
00:33:08.028 : :Chapter 10
00:38:00.361 : :Chapter 11
00:43:36.614 : :Chapter 12
00:48:24.985 : :Chapter 13
00:54:46.867 : :Chapter 14
00:57:25.400 : :Chapter 15
01:03:25.844 : :Chapter 16
01:08:27.103 : :Chapter 17
01:12:09.367 : :Chapter 18
01:15:55.634 : :Chapter 19
01:21:23.921 : :Chapter 20
01:23:20.579 : :Chapter 21
01:26:29.184 : :Chapter 22
01:30:38.475 : :Chapter 23
01:34:13.606 : :Chapter 24
01:38:34.951 : :Chapter 25
01:43:16.190 : :Chapter 26
01:48:12.569 : :Chapter 27
01:49:19.553 : :Chapter 28





The Picture of Dorian Gray (1945)


The Picture of Dorian Gray (1945)


The Picture of Dorian Gray (1945)


The Picture of Dorian Gray (1945)


The Picture of Dorian Gray (1945)