Tags
Language
Tags

The Princess Bride (1987)

Posted By: Tavaz
1080p (FullHD) / BDRip IMDb
The Princess Bride (1987)

The Princess Bride (1987)
BDRip | MKV | 1920x1032 | English | H265 @ 10341 kbps | Opus @ 485 kbps | 1 h 38 min | 7.46 GiB
Subtitles: English
Genre: Adventure, Family, Fantasy, Comedy, Romance

In this enchantingly cracked fairy tale, the beautiful Princess Buttercup and the dashing Westley must overcome staggering odds to find happiness amid six-fingered swordsmen, murderous princes, Sicilians and rodents of unusual size. But even death can't stop these true lovebirds from triumphing.

6a8a7754ad10bbf41cfc944d2717bd2d.mkv (7.5 GB)



General
Unique ID : 339321083658771765104534351383767628514 (0xFF46DD13733BFA4E5B9D9FEBD6753AE2)
Complete name : ./6a8a7754ad10bbf41cfc944d2717bd2d.mkv
Format : Matroska
Format version : Version 4 / Version 2
File size : 7.46 GiB
Duration : 1 h 38 min
Overall bit rate : 10.8 Mb/s
Movie name : The Princess Bride - 1987
Encoded date : UTC 2021-09-23 02:20:26
Writing application : mkvmerge v59.0.0 ('Shining Star') 64-bit
Writing library : libebml v1.4.2 + libmatroska v1.6.4

Video
ID : 1
Format : HEVC
Format/Info : High Efficiency Video Coding
Format profile : Main 10@L4@Main
Codec ID : V_MPEGH/ISO/HEVC
Duration : 1 h 38 min
Bit rate : 10.3 Mb/s
Width : 1 920 pixels
Height : 1 032 pixels
Display aspect ratio : 1.85:1
Frame rate mode : Variable
Frame rate : 23.976 FPS
Color space : YUV
Chroma subsampling : 4:2:0
Bit depth : 10 bits
Bits/(Pixel*Frame) : 0.218
Stream size : 7.11 GiB (95%)
Writing library : x265 3.5+12+14-106329cbd:[Windows][GCC 10.3.0][64 bit] 10bit
Encoding settings : cpuid=1111039 / frame-threads=4 / numa-pools=16 / wpp / no-pmode / no-pme / no-psnr / no-ssim / log-level=2 / input-csp=1 / input-res=1920x1032 / interlace=0 / total-frames=141616 / level-idc=0 / high-tier=1 / uhd-bd=0 / ref=4 / no-allow-non-conformance / no-repeat-headers / annexb / no-aud / no-eob / no-eos / no-hrd / info / hash=0 / no-temporal-layers / open-gop / min-keyint=23 / keyint=250 / gop-lookahead=0 / bframes=8 / b-adapt=2 / b-pyramid / bframe-bias=0 / rc-lookahead=25 / lookahead-slices=4 / scenecut=40 / no-hist-scenecut / radl=0 / no-splice / no-intra-refresh / ctu=64 / min-cu-size=8 / rect / no-amp / max-tu-size=32 / tu-inter-depth=1 / tu-intra-depth=1 / limit-tu=0 / rdoq-level=2 / dynamic-rd=0.00 / no-ssim-rd / signhide / no-tskip / nr-intra=0 / nr-inter=0 / no-constrained-intra / no-strong-intra-smoothing / max-merge=3 / limit-refs=3 / limit-modes / me=3 / subme=3 / merange=57 / temporal-mvp / no-frame-dup / no-hme / weightp / no-weightb / no-analyze-src-pics / deblock=-3:-3 / sao / no-sao-non-deblock / rd=4 / selective-sao=4 / no-early-skip / rskip / no-fast-intra / no-tskip-fast / no-cu-lossless / no-b-intra / no-splitrd-skip / rdpenalty=0 / psy-rd=2.00 / psy-rdoq=1.00 / no-rd-refine / no-lossless / cbqpoffs=-3 / crqpoffs=-3 / rc=crf / crf=22.0 / qcomp=0.60 / qpstep=4 / stats-write=0 / stats-read=0 / ipratio=1.40 / pbratio=1.30 / aq-mode=2 / aq-strength=0.60 / cutree / zone-count=0 / no-strict-cbr / qg-size=32 / no-rc-grain / qpmax=69 / qpmin=0 / no-const-vbv / sar=0 / overscan=0 / videoformat=5 / range=0 / colorprim=1 / transfer=1 / colormatrix=1 / chromaloc=0 / display-window=0 / cll=0,0 / min-luma=0 / max-luma=1023 / log2-max-poc-lsb=8 / vui-timing-info / vui-hrd-info / slices=1 / no-opt-qp-pps / no-opt-ref-list-length-pps / no-multi-pass-opt-rps / scenecut-bias=0.05 / hist-threshold=0.03 / no-opt-cu-delta-qp / no-aq-motion / no-hdr10 / no-hdr10-opt / no-dhdr10-opt / no-idr-recovery-sei / analysis-reuse-level=0 / analysis-save-reuse-level=0 / analysis-load-reuse-level=0 / scale-factor=0 / refine-intra=0 / refine-inter=0 / refine-mv=1 / refine-ctu-distortion=0 / no-limit-sao / ctu-info=0 / no-lowpass-dct / refine-analysis-type=0 / copy-pic=1 / max-ausize-factor=1.0 / no-dynamic-refine / no-single-sei / no-hevc-aq / no-svt / no-field / qp-adaptation-range=1.00 / scenecut-aware-qp=0 / conformance-window-right-offset=0 / conformance-window-bottom-offset=0 / decoder-max-rate=0 / no-vbv-live-multi-pass
Language : English
Default : Yes
Forced : No
Color range : Limited
Color primaries : BT.709
Transfer characteristics : BT.709
Matrix coefficients : BT.709

Audio
ID : 2
Format : Opus
Codec ID : A_OPUS
Duration : 1 h 38 min
Bit rate : 486 kb/s
Channel(s) : 6 channels
Channel positions : Front: L C R, Rear: L R, LFE
Sampling rate : 48.0 kHz
Frame rate : 50.000 FPS (960 SPF)
Compression mode : Lossy
Stream size : 342 MiB (4%)
Title : English
Writing library : Lavc59.3.102 libopus
Language : English
Default : Yes
Forced : No

Text
ID : 3
Format : PGS
Muxing mode : zlib
Codec ID : S_HDMV/PGS
Codec ID/Info : Picture based subtitle format used on BDs/HD-DVDs
Duration : 1 h 32 min
Bit rate : 42.7 kb/s
Count of elements : 2302
Stream size : 28.3 MiB (0%)
Title : English
Language : English
Default : No
Forced : No

Menu
00:00:00.000 : :Chapter 01
00:02:24.936 : :Chapter 02
00:05:46.888 : :Chapter 03
00:10:03.812 : :Chapter 04
00:13:29.267 : :Chapter 05
00:17:31.801 : :Chapter 06
00:21:57.441 : :Chapter 07
00:25:12.511 : :Chapter 08
00:29:34.398 : :Chapter 09
00:34:44.374 : :Chapter 10
00:40:23.087 : :Chapter 11
00:44:27.164 : :Chapter 12
00:48:14.308 : :Chapter 13
00:53:22.157 : :Chapter 14
00:57:29.613 : :Chapter 15
01:00:37.425 : :Chapter 16
01:03:49.993 : :Chapter 17
01:07:05.563 : :Chapter 18
01:10:12.333 : :Chapter 19
01:14:36.847 : :Chapter 20
01:18:17.568 : :Chapter 21
01:21:56.203 : :Chapter 22
01:24:40.826 : :Chapter 23
01:30:20.081 : :Chapter 24
01:33:41.866 : :Chapter 25





The Princess Bride (1987)


The Princess Bride (1987)


The Princess Bride (1987)


The Princess Bride (1987)


The Princess Bride (1987)