The Professor and the Madman (2019)

Posted By: Tavaz
1080p (FullHD) / WEB-DL IMDb
The Professor and the Madman (2019)

The Professor and the Madman (2019)
WEB-DL | MOV | 720x302 | English | H264 @ 1100 kbps | AAC @ 256 kbps | 2 h 4 min | 1.18 GiB
Genre: Drama, History, Mystery

Professor James Murray begins work compiling words for the first edition of the Oxford English Dictionary in the mid 19th century and receives over 10,000 entries from a patient at Broadmoor Criminal Lunatic Asylum , Dr William Minor.

2ea11782a1f64483bd073f2e3f456245.mp4 (1.2 GB)



General
Complete name : ./2ea11782a1f64483bd073f2e3f456245.mp4
Format : MPEG-4
Format profile : Base Media
Codec ID : isom (isom/iso2/avc1/mp41)
File size : 1.18 GiB
Duration : 2 h 4 min
Overall bit rate : 1 362 kb/s
Movie name : RARBG - The.Professor.and.the.Madman.2019.WEB-DL.x264-FGT
Encoded date : UTC 2019-04-15 19:30:32
Tagged date : UTC 2019-04-15 19:30:32
Writing application : Lavf58.20.100
Comment : RARBG - The.Professor.and.the.Madman.2019.WEB-DL.x264-FGT

Video
ID : 1
Format : AVC
Format/Info : Advanced Video Codec
Format profile : High@L3.1
Format settings : CABAC / 5 Ref Frames
Format settings, CABAC : Yes
Format settings, RefFrames : 5 frames
Codec ID : avc1
Codec ID/Info : Advanced Video Coding
Duration : 2 h 4 min
Bit rate : 1 100 kb/s
Width : 720 pixels
Height : 302 pixels
Display aspect ratio : 2.40:1
Frame rate mode : Constant
Frame rate : 24.000 FPS
Color space : YUV
Chroma subsampling : 4:2:0
Bit depth : 8 bits
Scan type : Progressive
Bits/(Pixel*Frame) : 0.211
Stream size : 980 MiB (81%)
Title : RARBG - The.Professor.and.the.Madman.2019.WEB-DL.x264-FGT
Writing library : x264 core 152 r2851M ba24899
Encoding settings : cabac=1 / ref=5 / deblock=1:-1:-1 / analyse=0x3:0x113 / me=umh / subme=9 / psy=1 / psy_rd=1.00:0.15 / mixed_ref=1 / me_range=16 / chroma_me=1 / trellis=2 / 8x8dct=1 / cqm=0 / deadzone=21,11 / fast_pskip=1 / chroma_qp_offset=-3 / threads=24 / lookahead_threads=2 / sliced_threads=0 / nr=0 / decimate=1 / interlaced=0 / bluray_compat=0 / constrained_intra=0 / bframes=3 / b_pyramid=2 / b_adapt=2 / b_bias=0 / direct=3 / weightb=1 / open_gop=0 / weightp=2 / keyint=250 / keyint_min=24 / scenecut=40 / intra_refresh=0 / rc_lookahead=50 / rc=2pass / mbtree=1 / bitrate=1100 / ratetol=1.0 / qcomp=0.60 / qpmin=0 / qpmax=69 / qpstep=4 / cplxblur=20.0 / qblur=0.5 / ip_ratio=1.40 / aq=1:1.00
Language : English
Encoded date : UTC 2019-04-15 19:30:32
Tagged date : UTC 2019-04-15 19:30:32

Audio
ID : 2
Format : AAC
Format/Info : Advanced Audio Codec
Format profile : LC
Codec ID : mp4a-40-2
Duration : 2 h 4 min
Duration_LastFrame : -11 ms
Bit rate mode : Constant
Bit rate : 256 kb/s
Channel(s) : 2 channels
Channel positions : Front: L R
Sampling rate : 48.0 kHz
Frame rate : 46.875 FPS (1024 SPF)
Compression mode : Lossy
Stream size : 228 MiB (19%)
Title : RARBG - The.Professor.and.the.Madman.2019.WEB-DL.x264-FGT
Language : English
Default : Yes
Alternate group : 1
Encoded date : UTC 2019-04-15 19:30:32
Tagged date : UTC 2019-04-15 19:30:32





The Professor and the Madman (2019)


The Professor and the Madman (2019)


The Professor and the Madman (2019)


The Professor and the Madman (2019)


The Professor and the Madman (2019)