Tags
Language
Tags

The Quiet Man (1952)

Posted By: Tavaz
The Quiet Man (1952)

The Quiet Man (1952)
MKV | 1280x720 | English | H265 @ 4697 kbps | Opus @ 256 kbps | 2 h 9 min | 4.50 GiB
Subtitles: Русский, English
Genre: Comedy, Drama, Romance

An American man returns to the village of his birth in Ireland, where he finds love and conflict.

46a57706ed7b494bbf668cd05dfcd77c.mkv (4.5 GB)



General
Unique ID : 141519575901126399270730018215053607915 (0x6A77ADCC079A6DAEBC5CD620F0ADC3EB)
Complete name : ./46a57706ed7b494bbf668cd05dfcd77c.mkv
Format : Matroska
Format version : Version 4 / Version 2
File size : 4.50 GiB
Duration : 2 h 9 min
Overall bit rate : 4 965 kb/s
Movie name : The Quiet Man [1952] Comedy Drama.BRRip.10Bit.720p.Hevc.Eng.Opus-M8.mkv
Encoded date : UTC 2020-01-28 19:21:30
Writing application : mkvmerge v41.0.0 ('Smarra') 64-bit
Writing library : libebml v1.3.9 + libmatroska v1.5.2 / Lavf58.20.100

Video
ID : 1
Format : HEVC
Format/Info : High Efficiency Video Coding
Format profile : Main 10@L3.1@Main
Codec ID : V_MPEGH/ISO/HEVC
Duration : 2 h 9 min
Bit rate : 4 698 kb/s
Width : 1 280 pixels
Height : 720 pixels
Display aspect ratio : 16:9
Frame rate mode : Constant
Frame rate : 23.976 (24000/1001) FPS
Color space : YUV
Chroma subsampling : 4:2:0
Bit depth : 10 bits
Bits/(Pixel*Frame) : 0.213
Stream size : 4.26 GiB (95%)
Title : 10Bit 720p 16x9 Hevc @ 23.976Fps
Writing library : x265 2.9:[Linux][GCC 7.3.0][64 bit] 10bit
Encoding settings : cpuid=1049583 / frame-threads=3 / wpp / no-pmode / no-pme / no-psnr / no-ssim / log-level=2 / input-csp=1 / input-res=1280x720 / interlace=0 / total-frames=0 / level-idc=0 / high-tier=1 / uhd-bd=0 / ref=3 / no-allow-non-conformance / no-repeat-headers / annexb / no-aud / no-hrd / info / hash=0 / no-temporal-layers / open-gop / min-keyint=24 / keyint=240 / gop-lookahead=0 / bframes=4 / b-adapt=2 / b-pyramid / bframe-bias=0 / rc-lookahead=20 / lookahead-slices=4 / scenecut=40 / radl=0 / no-intra-refresh / ctu=64 / min-cu-size=8 / no-rect / no-amp / max-tu-size=32 / tu-inter-depth=1 / tu-intra-depth=1 / limit-tu=0 / rdoq-level=0 / dynamic-rd=0.00 / no-ssim-rd / signhide / no-tskip / nr-intra=0 / nr-inter=0 / no-constrained-intra / strong-intra-smoothing / max-merge=2 / limit-refs=3 / no-limit-modes / me=1 / subme=2 / merange=57 / temporal-mvp / weightp / no-weightb / no-analyze-src-pics / deblock=0:0 / sao / no-sao-non-deblock / rd=3 / no-early-skip / rskip / no-fast-intra / no-tskip-fast / no-cu-lossless / no-b-intra / no-splitrd-skip / rdpenalty=0 / psy-rd=2.00 / psy-rdoq=0.00 / no-rd-refine / no-lossless / cbqpoffs=0 / crqpoffs=0 / rc=crf / crf=19.0 / qcomp=0.60 / qpstep=4 / stats-write=0 / stats-read=0 / ipratio=1.40 / pbratio=1.30 / aq-mode=1 / aq-strength=1.00 / cutree / zone-count=0 / no-strict-cbr / qg-size=32 / no-rc-grain / qpmax=69 / qpmin=0 / no-const-vbv / sar=1 / overscan=0 / videoformat=5 / range=0 / colorprim=1 / transfer=1 / colormatrix=1 / chromaloc=0 / display-window=0 / max-cll=0,0 / min-luma=0 / max-luma=1023 / log2-max-poc-lsb=8 / vui-timing-info / vui-hrd-info / slices=1 / no-opt-qp-pps / no-opt-ref-list-length-pps / no-multi-pass-opt-rps / scenecut-bias=0.05 / no-opt-cu-delta-qp / no-aq-motion / no-hdr / no-hdr-opt / no-dhdr10-opt / no-idr-recovery-sei / analysis-reuse-level=5 / scale-factor=0 / refine-intra=0 / refine-inter=0 / refine-mv=0 / no-limit-sao / ctu-info=0 / no-lowpass-dct / refine-mv-type=0 / copy-pic=1 / max-ausize-factor=1.0 / no-dynamic-refine / no-single-sei
Language : English
Default : Yes
Forced : No
Color range : Limited
Color primaries : BT.709
Transfer characteristics : BT.709
Matrix coefficients : BT.709

Audio
ID : 2
Format : Opus
Codec ID : A_OPUS
Duration : 2 h 9 min
Bit rate : 256 kb/s
Channel(s) : 1 channel
Channel positions : Front: C
Sampling rate : 48.0 kHz
Frame rate : 50.000 FPS (960 SPF)
Compression mode : Lossy
Delay relative to video : -7 ms
Stream size : 237 MiB (5%)
Title : English Opus Mono @ 256k
Language : English
Default : Yes
Forced : No

Text #1
ID : 3
Format : PGS
Muxing mode : zlib
Codec ID : S_HDMV/PGS
Codec ID/Info : Picture based subtitle format used on BDs/HD-DVDs
Duration : 2 h 6 min
Bit rate : 21.8 kb/s
Count of elements : 2022
Stream size : 19.7 MiB (0%)
Title : Sub 1 - English
Language : English
Default : No
Forced : No

Text #2
ID : 4
Format : PGS
Muxing mode : zlib
Codec ID : S_HDMV/PGS
Codec ID/Info : Picture based subtitle format used on BDs/HD-DVDs
Duration : 2 h 9 min
Bit rate : 19.8 kb/s
Count of elements : 2304
Stream size : 18.3 MiB (0%)
Title : Sub 2 - Russian
Language : Russian
Default : No
Forced : No

Menu
00:00:00.000 : en:Opening
00:11:35.611 : en:Mary Kate
00:19:38.177 : en:Friend To Everyone, But One
00:29:16.212 : en:First Visitor
00:42:05.689 : en:Matchmaker, Matchmaker
00:49:41.144 : en:Race For Bonnets
00:58:54.197 : en:The Courting
01:10:06.410 : en:Happily Ever After?
01:21:30.010 : en:The Morning After
01:29:37.955 : en:On The Town
01:46:37.516 : en:She Loves Him, She Leaves Him
01:53:58.373 : en:Visit From The In-Laws





The Quiet Man (1952)


The Quiet Man (1952)


The Quiet Man (1952)


The Quiet Man (1952)


The Quiet Man (1952)