Tags
Language
Tags

The Quiet Ones (2014)

Posted By: Tavaz
720p (HD) / BDRip IMDb
The Quiet Ones (2014)

The Quiet Ones (2014)
BDRip | AVI | 720x404 | MP4V-ES @ 1449 kbps | AC-3 @ 448 kbps | 1 h 40 min | 1.34 GiB
Genre: Horror

A university student and some classmates are recruited to carry out a private experiment – to create a poltergeist. Their subject: an alluring, but dangerously disturbed young woman. Their quest: to explore the dark energy that her damaged psyche might manifest. As the experiment unravels along with their sanity, the rogue PHD students, led by their determined professor, are soon confronted with a terrifying reality: they have triggered an unspeakable force with a power beyond all explanation.

the wicked 2013.avi (1.3 GB)
The.Quiet.Ones.2014.720p.BluRay.x264.YIFY(1).srt (65.2 KB)
The.Quiet.Ones.2014.720p.BluRay.x264.YIFY.srt (65.2 KB)
The.Quiet.Ones.2014.720p.BluRay.x264.YIFY(2).srt (65.2 KB)
The.Quiet.Ones.2014.720p.BluRay.x264.YIFY.mp4 (753.6 MB)



General
Complete name : ./the wicked 2013.avi
Format : AVI
Format/Info : Audio Video Interleave
Format profile : OpenDML
File size : 1.34 GiB
Duration : 1 h 40 min
Overall bit rate : 1 910 kb/s
Movie name : the wicked 2013
Writing application : Lavf56.40.101
Original source form/Name : MOVIESTER

Video
ID : 0
Format : MPEG-4 Visual
Format profile : Advanced Simple@L5
Format settings : BVOP2
Format settings, BVOP : 2
Format settings, QPel : No
Format settings, GMC : No warppoints
Format settings, Matrix : Default (MPEG)
Muxing mode : Packed bitstream
Codec ID : DX50
Codec ID/Hint : DivX 5
Duration : 1 h 40 min
Bit rate : 1 449 kb/s
Width : 720 pixels
Height : 404 pixels
Display aspect ratio : 16:9
Frame rate : 25.000 FPS
Color space : YUV
Chroma subsampling : 4:2:0
Bit depth : 8 bits
Scan type : Progressive
Compression mode : Lossy
Bits/(Pixel*Frame) : 0.199
Stream size : 1.02 GiB (76%)
Writing library : XviD 67

Audio
ID : 1
Format : AC-3
Format/Info : Audio Coding 3
Format settings, Endianness : Big
Codec ID : 2000
Duration : 1 h 40 min
Bit rate mode : Constant
Bit rate : 448 kb/s
Channel(s) : 6 channels
Channel positions : Front: L C R, Side: L R, LFE
Sampling rate : 48.0 kHz
Frame rate : 31.250 FPS (1536 SPF)
Bit depth : 16 bits
Compression mode : Lossy
Stream size : 322 MiB (23%)
Alignment : Aligned on interleaves
Interleave, duration : 32 ms (0.80 video frame)
Service kind : Complete Main





The Quiet Ones (2014)


The Quiet Ones (2014)


The Quiet Ones (2014)


The Quiet Ones (2014)


The Quiet Ones (2014)