The Revenant (2015)

Posted By: Tavaz
The Revenant (2015)

The Revenant (2015)
MOV | 1920x804 | English | H265 @ 5662 kbps | DTS @ 1509 kbps | 2 h 36 min | 7.87 GiB
Subtitles: Swedish, Danish, Estonian, Finnish, Ukrainian, Lithuanian, Norwegian, Latvian, English, Russian
Genre: Adventure, Drama, Thriller, Western

In the 1820s, a frontiersman, Hugh Glass, sets out on a path of vengeance against those who left him for dead after a bear mauling.

2ccb55ec73f34a8784922d569cf2c861.mp4 (7.9 GB)



General
Complete name : ./2ccb55ec73f34a8784922d569cf2c861.mp4
Format : MPEG-4
Format profile : Base Media / Version 2
Codec ID : mp42 (mp42/isom/hvc1)
File size : 7.87 GiB
Duration : 2 h 36 min
Overall bit rate mode : Variable
Overall bit rate : 7 209 kb/s
Movie name : THE_REVENANT.Title800
Album : THE_REVENANT
Encoded date : UTC 2018-03-16 06:05:47
Tagged date : UTC 2018-03-16 09:17:14
Writing application : DVDFab 10.0.8.7
Cover : Yes

Video
ID : 1
Format : HEVC
Format/Info : High Efficiency Video Coding
Format profile : Main 10@L4@Main
Codec ID : hvc1
Codec ID/Info : High Efficiency Video Coding
Duration : 2 h 36 min
Bit rate : 5 662 kb/s
Width : 1 920 pixels
Height : 804 pixels
Display aspect ratio : 2.40:1
Frame rate mode : Constant
Frame rate : 23.976 (24000/1001) FPS
Color space : YUV
Chroma subsampling : 4:2:0
Bit depth : 10 bits
Bits/(Pixel*Frame) : 0.153
Stream size : 6.18 GiB (79%)
Encoded date : UTC 2018-03-16 06:05:47
Tagged date : UTC 2018-03-16 09:17:13
Color range : Limited
Color primaries : BT.709
Transfer characteristics : BT.709
Matrix coefficients : BT.709
Menus : 14

Audio
ID : 2
Format : DTS
Format/Info : Digital Theater Systems
Codec ID : dtsc
Codec ID/Info : Digital Theater Systems
Duration : 2 h 36 min
Bit rate mode : Constant
Bit rate : 1 509 kb/s
Channel(s) : channel0
Sampling rate : 0 Hz
Bit depth : 28 bits
Compression mode : Lossy
Stream size : 1.65 GiB (21%)
Title : English (dts 5.1)
Language : English
Default : Yes
Alternate group : 1
Encoded date : UTC 2018-03-16 06:05:47
Tagged date : UTC 2018-03-16 09:17:05

Text #1
ID : 3
Format : VobSub
Codec ID : mp4s-E0
Codec ID/Info : The same subtitle format used on DVDs
Duration : 2 h 22 min
Bit rate mode : Variable
Bit rate : 3 466 b/s
Maximum bit rate : 4 249 Mb/s
Stream size : 3.52 MiB (0%)
Language : English
Default : Yes
Forced : No
Alternate group : 2
Encoded date : UTC 2018-03-16 06:05:47
Tagged date : UTC 2018-03-16 09:07:15

Text #2
ID : 4
Format : VobSub
Codec ID : mp4s-E0
Codec ID/Info : The same subtitle format used on DVDs
Duration : 2 h 22 min
Bit rate mode : Variable
Bit rate : 302 b/s
Maximum bit rate : 4 249 Mb/s
Stream size : 314 KiB (0%)
Language : English
Default : No
Forced : No
Alternate group : 2
Encoded date : UTC 2018-03-16 06:05:47
Tagged date : UTC 2018-03-16 09:07:15

Text #3
ID : 5
Format : VobSub
Codec ID : mp4s-E0
Codec ID/Info : The same subtitle format used on DVDs
Duration : 2 h 36 min
Bit rate mode : Variable
Bit rate : 3 262 b/s
Maximum bit rate : 4 249 Mb/s
Stream size : 3.64 MiB (0%)
Language : Danish
Default : No
Forced : No
Alternate group : 2
Encoded date : UTC 2018-03-16 06:05:47
Tagged date : UTC 2018-03-16 09:17:07

Text #4
ID : 6
Format : VobSub
Codec ID : mp4s-E0
Codec ID/Info : The same subtitle format used on DVDs
Duration : 2 h 36 min
Bit rate mode : Variable
Bit rate : 2 793 b/s
Maximum bit rate : 4 249 Mb/s
Stream size : 3.12 MiB (0%)
Language : Finnish
Default : No
Forced : No
Alternate group : 2
Encoded date : UTC 2018-03-16 06:05:47
Tagged date : UTC 2018-03-16 09:17:07

Text #5
ID : 7
Format : VobSub
Codec ID : mp4s-E0
Codec ID/Info : The same subtitle format used on DVDs
Duration : 2 h 36 min
Bit rate mode : Variable
Bit rate : 3 039 b/s
Maximum bit rate : 4 249 Mb/s
Stream size : 3.39 MiB (0%)
Language : Norwegian
Default : No
Forced : No
Alternate group : 2
Encoded date : UTC 2018-03-16 06:05:47
Tagged date : UTC 2018-03-16 09:17:07

Text #6
ID : 8
Format : VobSub
Codec ID : mp4s-E0
Codec ID/Info : The same subtitle format used on DVDs
Duration : 2 h 36 min
Bit rate mode : Variable
Bit rate : 3 650 b/s
Maximum bit rate : 4 249 Mb/s
Stream size : 4.08 MiB (0%)
Language : Russian
Default : No
Forced : No
Alternate group : 2
Encoded date : UTC 2018-03-16 06:05:47
Tagged date : UTC 2018-03-16 09:17:07

Text #7
ID : 9
Format : VobSub
Codec ID : mp4s-E0
Codec ID/Info : The same subtitle format used on DVDs
Duration : 2 h 36 min
Bit rate mode : Variable
Bit rate : 3 166 b/s
Maximum bit rate : 4 249 Mb/s
Stream size : 3.54 MiB (0%)
Language : Swedish
Default : No
Forced : No
Alternate group : 2
Encoded date : UTC 2018-03-16 06:05:47
Tagged date : UTC 2018-03-16 09:17:07

Text #8
ID : 10
Format : VobSub
Codec ID : mp4s-E0
Codec ID/Info : The same subtitle format used on DVDs
Duration : 2 h 36 min
Bit rate mode : Variable
Bit rate : 3 504 b/s
Maximum bit rate : 4 249 Mb/s
Stream size : 3.91 MiB (0%)
Language : Estonian
Default : No
Forced : No
Alternate group : 2
Encoded date : UTC 2018-03-16 06:05:47
Tagged date : UTC 2018-03-16 09:17:07

Text #9
ID : 11
Format : VobSub
Codec ID : mp4s-E0
Codec ID/Info : The same subtitle format used on DVDs
Duration : 2 h 36 min
Bit rate mode : Variable
Bit rate : 3 470 b/s
Maximum bit rate : 4 249 Mb/s
Stream size : 3.88 MiB (0%)
Language : Latvian
Default : No
Forced : No
Alternate group : 2
Encoded date : UTC 2018-03-16 06:05:47
Tagged date : UTC 2018-03-16 09:17:07

Text #10
ID : 12
Format : VobSub
Codec ID : mp4s-E0
Codec ID/Info : The same subtitle format used on DVDs
Duration : 2 h 36 min
Bit rate mode : Variable
Bit rate : 3 349 b/s
Maximum bit rate : 4 249 Mb/s
Stream size : 3.74 MiB (0%)
Language : Lithuanian
Default : No
Forced : No
Alternate group : 2
Encoded date : UTC 2018-03-16 06:05:47
Tagged date : UTC 2018-03-16 09:17:07

Text #11
ID : 13
Format : VobSub
Codec ID : mp4s-E0
Codec ID/Info : The same subtitle format used on DVDs
Duration : 2 h 36 min
Bit rate mode : Variable
Bit rate : 3 751 b/s
Maximum bit rate : 4 249 Mb/s
Stream size : 4.19 MiB (0%)
Language : Ukrainian
Default : No
Forced : No
Alternate group : 2
Encoded date : UTC 2018-03-16 06:05:47
Tagged date : UTC 2018-03-16 09:17:07

Menu
ID : 14
Codec ID : text
Duration : 2 h 36 min
Encoded date : UTC 2018-03-16 06:05:47
Tagged date : UTC 2018-03-16 09:17:14
Menu For : 1
Source duration : 9381371
Source frame count : 24
Source stream size : 567
Frame count : 24
Stream size : 567
00:00:00.000 : Chapter 1
00:05:04.887 : Chapter 2
00:07:58.311 : Chapter 3
00:13:18.964 : Chapter 4
00:21:10.686 : Chapter 5
00:28:21.658 : Chapter 6
00:37:07.808 : Chapter 7
00:44:00.345 : Chapter 8
00:48:14.975 : Chapter 9
00:51:42.265 : Chapter 10
00:56:51.032 : Chapter 11
00:59:50.753 : Chapter 12
01:03:31.807 : Chapter 13
01:11:52.432 : Chapter 14
01:16:36.174 : Chapter 15
01:21:22.377 : Chapter 16
01:28:31.138 : Chapter 17
01:37:29.968 : Chapter 18
01:48:44.642 : Chapter 19
01:53:08.823 : Chapter 20
01:59:05.930 : Chapter 21
02:02:56.743 : Chapter 22
02:15:45.261 : Chapter 23
02:22:51.020 : Chapter 24
Bit rate mode : VBR





The Revenant (2015)


The Revenant (2015)


The Revenant (2015)


The Revenant (2015)


The Revenant (2015)