The Scarehouse (2014)

Posted By: Tavaz
1080p (FullHD) / BDRip IMDb
The Scarehouse (2014)

The Scarehouse (2014)
BDRip | MKV | 1920x808 | English | H265 @ 2170 kbps | AC-3 @ 448 kbps | 1 h 24 min | 1.54 GiB
Genre: Crime, Horror, Thriller

When two friends open a Halloween fun house on Devil's Night it is all fun and games until their former sorority sisters begin to arrive. These six sisters are confronted by their past as the night spins out of control.

25235f9a526b4b4f8c422fd2d518cd0e.mkv (1.5 GB)



General
Unique ID : 178869672746536698272779794523116367498 (0x86910BBF59C7D380A5EA3B5EBEA56E8A)
Complete name : ./25235f9a526b4b4f8c422fd2d518cd0e.mkv
Format : Matroska
Format version : Version 2
File size : 1.54 GiB
Duration : 1 h 24 min
Overall bit rate : 2 620 kb/s
Movie name : The Scarehouse 2014 BluRay 10Bit 1080p DD5.1 H265-d3g
Encoded date : UTC 2018-01-17 01:01:09
Writing application : DVDFab 10.0.7.7
Writing library : libebml v1.3.4 + libmatroska v1.4.5

Video
ID : 1
Format : HEVC
Format/Info : High Efficiency Video Coding
Format profile : Main 10@L4@Main
Codec ID : V_MPEGH/ISO/HEVC
Duration : 1 h 24 min
Bit rate : 2 170 kb/s
Width : 1 920 pixels
Height : 808 pixels
Display aspect ratio : 2.40:1
Frame rate mode : Constant
Frame rate : 23.976 (24000/1001) FPS
Color space : YUV
Chroma subsampling : 4:2:0
Bit depth : 10 bits
Bits/(Pixel*Frame) : 0.058
Stream size : 1.28 GiB (83%)
Default : Yes
Forced : No
Color range : Limited
Color primaries : BT.709
Transfer characteristics : BT.709
Matrix coefficients : BT.709

Audio
ID : 2
Format : AC-3
Format/Info : Audio Coding 3
Format settings, Endianness : Big
Codec ID : A_AC3
Duration : 1 h 24 min
Bit rate mode : Constant
Bit rate : 448 kb/s
Channel(s) : 6 channels
Channel positions : Front: L C R, Side: L R, LFE
Sampling rate : 48.0 kHz
Frame rate : 31.250 FPS (1536 SPF)
Bit depth : 16 bits
Compression mode : Lossy
Stream size : 270 MiB (17%)
Language : English
Service kind : Complete Main
Default : Yes
Forced : No

Menu
00:00:00.000 : en:(01)00:00:00:000
00:16:03.045 : en:(02)00:16:03:045
00:30:33.915 : en:(03)00:30:33:915
00:43:24.476 : en:(04)00:43:24:476
00:57:27.777 : en:(05)00:57:27:777
01:08:09.752 : en:(06)01:08:09:752
01:16:01.598 : en:(07)01:16:01:598
01:20:44.840 : en:(08)01:20:44:840
01:24:15.592 : en:(09)01:24:15:592





The Scarehouse (2014)


The Scarehouse (2014)


The Scarehouse (2014)


The Scarehouse (2014)


The Scarehouse (2014)