Tags
Language
Tags
October 2022
Su Mo Tu We Th Fr Sa
25 26 27 28 29 30 1
2 3 4 5 6 7 8
9 10 11 12 13 14 15
16 17 18 19 20 21 22
23 24 25 26 27 28 29
30 31 1 2 3 4 5

The Secret War of Harry Frigg (1968)

Posted By: Tavaz
720p (HD) / BDRip IMDb
The Secret War of Harry Frigg (1968)

The Secret War of Harry Frigg (1968)
BDRip | MKV | 1280x544 | English | H264 @ 6889 kbps | FLAC @ 317 kbps | 1 h 49 min | 5.60 GiB
Subtitles: English
Genre: Comedy, War

In 1943, a group of captured Allied military can't agree on an escape plan, The allies headquarters develop a plan and send in a man who they hope is captured, to coordinate the captives' escape.,When 5 allied generals are captured in Italy in WW II, it is a propaganda nightmare for the Allies. The generals are all 1 star and refuse to take orders from each other in order to plan an escape. Harry Frigg is a private who has escaped from the guard house dozens of times. He is promoted to Major General (2 stars) and ordered to get the generals out once he is captured. Harry is willing to escape, but then he meets the countess …

The.Secret.War.of.Harry.Frigg.1968.720p.BluRay.FLAC.x264-HANDJOB.mkv (5.6 GB)



General
Unique ID : 242017177166670960497200565257157888977 (0xB612D01756F9820409F24AFECA524BD1)
Complete name : ./The.Secret.War.of.Harry.Frigg.1968.720p.BluRay.FLAC.x264-HANDJOB.mkv
Format : Matroska
Format version : Version 4 / Version 2
File size : 5.60 GiB
Duration : 1 h 49 min
Overall bit rate mode : Variable
Overall bit rate : 7 290 kb/s
Movie name : The Secret War of Harry Frigg [1968] 720p BluRay - HJ
Encoded date : UTC 2021-05-04 23:16:20
Writing application : mkvmerge v51.0.0 ('I Wish') 64-bit
Writing library : libebml v1.4.0 + libmatroska v1.6.2

Video
ID : 1
Format : AVC
Format/Info : Advanced Video Codec
Format profile : High@L4.1
Format settings : CABAC / 12 Ref Frames
Format settings, CABAC : Yes
Format settings, RefFrames : 12 frames
Codec ID : V_MPEG4/ISO/AVC
Duration : 1 h 49 min
Bit rate : 6 890 kb/s
Width : 1 280 pixels
Height : 544 pixels
Display aspect ratio : 2.35:1
Frame rate mode : Constant
Frame rate : 23.976 (24000/1001) FPS
Color space : YUV
Chroma subsampling : 4:2:0
Bit depth : 8 bits
Scan type : Progressive
Bits/(Pixel*Frame) : 0.413
Stream size : 5.29 GiB (95%)
Writing library : x264 core 157 r2935 545de2f
Encoding settings : cabac=1 / ref=12 / deblock=1:-3:-3 / analyse=0x3:0x133 / me=umh / subme=10 / psy=1 / psy_rd=1.00:0.00 / mixed_ref=1 / me_range=32 / chroma_me=1 / trellis=2 / 8x8dct=1 / cqm=0 / deadzone=21,11 / fast_pskip=0 / chroma_qp_offset=-2 / threads=17 / lookahead_threads=4 / sliced_threads=0 / nr=0 / decimate=0 / interlaced=0 / bluray_compat=0 / constrained_intra=0 / bframes=16 / b_pyramid=2 / b_adapt=2 / b_bias=0 / direct=3 / weightb=1 / open_gop=0 / weightp=2 / keyint=240 / keyint_min=24 / scenecut=40 / intra_refresh=0 / rc_lookahead=60 / rc=crf / mbtree=0 / crf=16.5 / qcomp=0.60 / qpmin=0 / qpmax=69 / qpstep=4 / vbv_maxrate=62500 / vbv_bufsize=78125 / crf_max=0.0 / nal_hrd=none / filler=0 / ip_ratio=1.40 / pb_ratio=1.30 / aq=2:1.00
Default : Yes
Forced : No
Color range : Limited
Color primaries : BT.709
Transfer characteristics : BT.709
Matrix coefficients : BT.709

Audio #1
ID : 2
Format : FLAC
Format/Info : Free Lossless Audio Codec
Codec ID : A_FLAC
Duration : 1 h 49 min
Bit rate mode : Variable
Bit rate : 318 kb/s
Channel(s) : 2 channels
Channel positions : Front: L R
Sampling rate : 48.0 kHz
Frame rate : 11.719 FPS (4096 SPF)
Bit depth : 16 bits
Stream size : 250 MiB (4%)
Writing library : libFLAC 1.2.1 (UTC 2007-09-17)
Language : English
Default : Yes
Forced : No

Audio #2
ID : 3
Format : AAC
Format/Info : Advanced Audio Codec
Format profile : LC
Codec ID : A_AAC-2
Duration : 1 h 49 min
Bit rate : 79.0 kb/s
Channel(s) : 2 channels
Channel positions : Front: L R
Sampling rate : 48.0 kHz
Frame rate : 46.875 FPS (1024 SPF)
Compression mode : Lossy
Stream size : 62.1 MiB (1%)
Title : Commentary by Film Historian/Filmmaker Daniel Kremer and Film Historian/Biographer Nat Segaloff
Language : English
Default : No
Forced : No

Text
ID : 4
Format : UTF-8
Codec ID : S_TEXT/UTF8
Codec ID/Info : UTF-8 Plain Text
Duration : 1 h 49 min
Bit rate : 71 b/s
Count of elements : 1711
Stream size : 57.4 KiB (0%)
Language : English
Default : No
Forced : No

Menu
00:00:00.000 : :Chapter 1
00:10:45.395 : :Chapter 2
00:22:47.116 : :Chapter 3
00:32:25.861 : :Chapter 4
00:48:58.686 : :Chapter 5
01:00:46.226 : :Chapter 6
01:11:59.816 : :Chapter 7
01:25:34.379 : :Chapter 8
01:37:06.821 : :Chapter 9





The Secret War of Harry Frigg (1968)


The Secret War of Harry Frigg (1968)


The Secret War of Harry Frigg (1968)


The Secret War of Harry Frigg (1968)


The Secret War of Harry Frigg (1968)