Tags
Language
Tags

The Shanghai Job (2017)

Posted By: Tavaz
SD / WEBRip IMDb
The Shanghai Job (2017)

The Shanghai Job (2017)
WEBRip | MKV | 720x304 | German | H264 @ 1115 kbps | AC-3 @ 384 kbps | 1 h 33 min | 1 005 MiB
Subtitles: German
Genre: Action, Adventure, Comedy

Nachdem ein unter seiner Obhut stehendes, unbezahlbares Van-Gogh-Gemälde gestohlen worden ist, degradiert man den hoch spezialisierten Security-Agenten Danny Stratton (Orlando Bloom) zum gewöhnlichen Bodyguard. Als er die Auslieferung einer wertvollen chinesischen Antiquität bewachen soll, wittert er die Chance, seine beschädigte Reputation wiederherzustellen. Der Transport gerät jedoch in einen Hinterhalt, die kostbare Ladung wird geraubt und die Frau, die er liebt, wird entführt. Zusammen mit seinem Team von Sicherheitsexperten setzt er nun alles daran, ihr Leben zu retten und das wertvolle Diebesgut zurückzuerobern.

The.Shanghai.Job.2017.German.DD51.WEBRip.x264-EDE.mkv (1005.3 MB)



General
Unique ID : 199228939979688195452050174415279889981 (0x95E2191F0480DDD4BB17C06630021E3D)
Complete name : ./The.Shanghai.Job.2017.German.DD51.WEBRip.x264-EDE/The.Shanghai.Job.2017.German.DD51.WEBRip.x264-EDE.mkv
Format : Matroska
Format version : Version 2
File size : 1 005 MiB
Duration : 1 h 33 min
Overall bit rate : 1 502 kb/s
Encoded date : UTC 2018-04-10 16:32:05
Writing application : mkvmerge v18.0.0 ('Apricity') 64-bit
Writing library : libebml v1.3.5 + libmatroska v1.4.8

Video
ID : 1
Format : AVC
Format/Info : Advanced Video Codec
Format profile : High@L3
Format settings : CABAC / 5 Ref Frames
Format settings, CABAC : Yes
Format settings, RefFrames : 5 frames
Codec ID : V_MPEG4/ISO/AVC
Duration : 1 h 33 min
Bit rate : 1 116 kb/s
Width : 720 pixels
Height : 304 pixels
Display aspect ratio : 2.35:1
Frame rate mode : Constant
Frame rate : 24.000 FPS
Color space : YUV
Chroma subsampling : 4:2:0
Bit depth : 8 bits
Scan type : Progressive
Bits/(Pixel*Frame) : 0.212
Stream size : 747 MiB (74%)
Writing library : x264 core 152 r2851 ba24899
Encoding settings : cabac=1 / ref=5 / deblock=1:-3:-3 / analyse=0x3:0x113 / me=umh / subme=7 / psy=1 / psy_rd=1.00:0.00 / mixed_ref=1 / me_range=32 / chroma_me=1 / trellis=1 / 8x8dct=1 / cqm=0 / deadzone=21,11 / fast_pskip=0 / chroma_qp_offset=-2 / threads=6 / lookahead_threads=1 / sliced_threads=0 / nr=0 / decimate=1 / interlaced=0 / bluray_compat=0 / constrained_intra=0 / bframes=5 / b_pyramid=2 / b_adapt=2 / b_bias=0 / direct=1 / weightb=1 / open_gop=0 / weightp=2 / keyint=240 / keyint_min=24 / scenecut=40 / intra_refresh=0 / rc_lookahead=40 / rc=crf / mbtree=1 / crf=16.0 / qcomp=0.60 / qpmin=0 / qpmax=69 / qpstep=4 / ip_ratio=1.40 / aq=1:1.00
Language : English
Default : Yes
Forced : No

Audio
ID : 2
Format : AC-3
Format/Info : Audio Coding 3
Format settings, Endianness : Big
Codec ID : A_AC3
Duration : 1 h 33 min
Bit rate mode : Constant
Bit rate : 384 kb/s
Channel(s) : 6 channels
Channel positions : Front: L C R, Side: L R, LFE
Sampling rate : 48.0 kHz
Frame rate : 31.250 FPS (1536 SPF)
Bit depth : 16 bits
Compression mode : Lossy
Stream size : 257 MiB (26%)
Language : German
Service kind : Complete Main
Default : Yes
Forced : No

Text
ID : 3
Format : UTF-8
Codec ID : S_TEXT/UTF8
Codec ID/Info : UTF-8 Plain Text
Duration : 1 h 20 min
Bit rate : 0 b/s
Count of elements : 19
Stream size : 451 Bytes (0%)
Language : German
Default : Yes
Forced : No





The Shanghai Job (2017)


The Shanghai Job (2017)


The Shanghai Job (2017)


The Shanghai Job (2017)


The Shanghai Job (2017)