Tags
Language
Tags

The Timber (2015)

Posted By: Tavaz
The Timber (2015)

The Timber (2015)
MKV | 1280x544 | English | H264 @ 6279 kbps | DTS @ 1509 kbps | 1 h 20 min | 4.37 GiB
Subtitles: Dutch, English
Genre: Adventure, Drama, Western

In the wild west, two brothers embark on a journey to collect a bounty in a desperate attempt to save their home: but what they find along the way is more than they bargained for.

THE TIMBER (2015) 720p Western.srt (28.2 KB)
THE TIMBER (2015) 720p Western.mkv (4.4 GB)
THE TIMBER (2015) 720p Western.1.srt (28.2 KB)



General
Unique ID : 230594457197830951793623383882022571489 (0xAD7AE083E78ABA70873326F4CDCCCDE1)
Complete name : ./THE TIMBER (2015) 720p Western.mkv
Format : Matroska
Format version : Version 4 / Version 2
File size : 4.37 GiB
Duration : 1 h 20 min
Overall bit rate : 7 788 kb/s
Encoded date : UTC 2015-10-03 17:42:28
Writing application : mkvmerge v6.2.0 ('Promised Land') built on Apr 28 2013 12:22:01
Writing library : libebml v1.3.0 + libmatroska v1.4.0

Video
ID : 1
Format : AVC
Format/Info : Advanced Video Codec
Format profile : High@L4.1
Format settings : CABAC / 5 Ref Frames
Format settings, CABAC : Yes
Format settings, RefFrames : 5 frames
Codec ID : V_MPEG4/ISO/AVC
Duration : 1 h 20 min
Bit rate : 6 279 kb/s
Width : 1 280 pixels
Height : 544 pixels
Display aspect ratio : 2.35:1
Frame rate mode : Constant
Frame rate : 23.976 FPS
Color space : YUV
Chroma subsampling : 4:2:0
Bit depth : 8 bits
Scan type : Progressive
Bits/(Pixel*Frame) : 0.376
Stream size : 3.44 GiB (79%)
Writing library : x264 core 148 r2597 e86f3a1
Encoding settings : cabac=1 / ref=5 / deblock=1:0:0 / analyse=0x3:0x133 / me=umh / subme=7 / psy=1 / psy_rd=1.00:0.00 / mixed_ref=1 / me_range=16 / chroma_me=1 / trellis=1 / 8x8dct=1 / cqm=0 / deadzone=21,11 / fast_pskip=0 / chroma_qp_offset=-2 / threads=17 / lookahead_threads=2 / sliced_threads=0 / nr=0 / decimate=1 / interlaced=0 / bluray_compat=0 / constrained_intra=0 / bframes=3 / b_pyramid=2 / b_adapt=1 / b_bias=0 / direct=1 / weightb=1 / open_gop=0 / weightp=2 / keyint=250 / keyint_min=23 / scenecut=40 / intra_refresh=0 / rc_lookahead=40 / rc=2pass / mbtree=1 / bitrate=6279 / ratetol=1.0 / qcomp=0.60 / qpmin=0 / qpmax=69 / qpstep=4 / cplxblur=20.0 / qblur=0.5 / ip_ratio=1.40 / aq=1:1.00
Language : English
Default : Yes
Forced : No
Statistics Tags Issue : mkvmerge v8.3.0 ('Over the Horizon') 64bit 2015-09-29 20:17:49 / mkvmerge v6.2.0 ('Promised Land') built on Apr 28 2013 12:22:01 2015-10-03 17:42:28
FromStats_BitRate : 6276535
FromStats_Duration : 01:20:19.698000000
FromStats_FrameCount : 115557
FromStats_StreamSize : 3781375445

Audio
ID : 2
Format : DTS
Format/Info : Digital Theater Systems
Mode : 16
Format settings, Endianness : Big
Codec ID : A_DTS
Duration : 1 h 20 min
Bit rate mode : Constant
Bit rate : 1 509 kb/s
Channel(s) : 6 channels
Channel positions : Front: L C R, Side: L R, LFE
Sampling rate : 48.0 kHz
Frame rate : 93.750 FPS (512 SPF)
Bit depth : 24 bits
Compression mode : Lossy
Stream size : 867 MiB (19%)
Title : DTS
Language : English
Default : Yes
Forced : No
Statistics Tags Issue : mkvmerge v8.3.0 ('Over the Horizon') 64bit 2015-09-29 20:17:49 / mkvmerge v6.2.0 ('Promised Land') built on Apr 28 2013 12:22:01 2015-10-03 17:42:28
FromStats_BitRate : 1508999
FromStats_Duration : 01:20:19.734000000
FromStats_FrameCount : 451850
FromStats_StreamSize : 909122200

Text #1
ID : 3
Format : UTF-8
Codec ID : S_TEXT/UTF8
Codec ID/Info : UTF-8 Plain Text
Title : english
Language : English
Default : No
Forced : No

Text #2
ID : 4
Format : UTF-8
Codec ID : S_TEXT/UTF8
Codec ID/Info : UTF-8 Plain Text
Title : dutch.p2h
Language : Dutch
Default : Yes
Forced : No

Menu
00:00:00.000 : en:00:00:00.000
00:07:46.174 : en:00:07:46.174
00:13:40.820 : en:00:13:40.820
00:22:07.409 : en:00:22:07.409
00:27:53.964 : en:00:27:53.964
00:34:59.639 : en:00:34:59.639
00:43:33.528 : en:00:43:33.528
00:55:23.362 : en:00:55:23.362
01:04:15.852 : en:01:04:15.852
01:13:48.341 : en:01:13:48.341





The Timber (2015)


The Timber (2015)


The Timber (2015)


The Timber (2015)


The Timber (2015)