Tags
Language
Tags

The Toxic Avenger: The Musical (2018)

Posted By: Tavaz
720p (HD) / WEB-DL IMDb
The Toxic Avenger: The Musical (2018)

The Toxic Avenger: The Musical (2018)
WEB-DL | MKV | 1280x688 | English | H264 @ 3091 kbps | E-AC-3 @ 224 kbps | 2 h 1 min | 2.81 GiB
WEB-DL | MKV | 1920x1040 | English | H264 @ 7005 kbps | E-AC-3 @ 224 kbps | 2 h 1 min | 6.12 GiB
Subtitles: English
Genre: Comedy, Music, Science Fiction

Based on Lloyd Kaufman’s cult 1984 comedy film, The Toxic Avenger The Musical tells the story of the citizens of Tromaville who are crying out for a hero. Enter nerdy Melvin Ferd the Third, an aspiring earth scientist, determined to clean up the state’s major toxic waste problem. When a corrupt Mayor and her government goons get wind of his plans, they vow to stop this heroic feat. Melvin is attacked and tossed into a vat of toxic waste… transforming him instantly into The Toxic Avenger, New Jersey’s first superhero! Toxie is a 7-foot mutant freak with superhuman strength and a supersized heart to match. His aims are to save heavily polluted New Jersey, end global warming, win the heart of the prettiest (blindest) librarian in town - and get home in time for dinner!

3902fa93471f4573bffb8f81a07747df.mkv (2.8 GB)



General
Unique ID : 261713957937220246632409940949010955482 (0xC4E4465C46FB29AF11DB08C6F54F3CDA)
Complete name : ./3902fa93471f4573bffb8f81a07747df.mkv
Format : Matroska
Format version : Version 4 / Version 2
File size : 2.81 GiB
Duration : 2 h 1 min
Overall bit rate mode : Variable
Overall bit rate : 3 318 kb/s
Encoded date : UTC 2018-06-07 08:19:18
Writing application : mkvmerge v21.0.0 ('Tardigrades Will Inherit The Earth') 64-bit
Writing library : libebml v1.3.5 + libmatroska v1.4.8

Video
ID : 1
Format : AVC
Format/Info : Advanced Video Codec
Format profile : High@L3.1
Format settings : CABAC / 5 Ref Frames
Format settings, CABAC : Yes
Format settings, RefFrames : 5 frames
Codec ID : V_MPEG4/ISO/AVC
Duration : 2 h 1 min
Bit rate mode : Variable
Bit rate : 3 092 kb/s
Maximum bit rate : 4 500 kb/s
Width : 1 280 pixels
Height : 688 pixels
Display aspect ratio : 1.85:1
Frame rate mode : Constant
Frame rate : 23.976 (24000/1001) FPS
Color space : YUV
Chroma subsampling : 4:2:0
Bit depth : 8 bits
Scan type : Progressive
Bits/(Pixel*Frame) : 0.146
Stream size : 2.62 GiB (93%)
Default : Yes
Forced : No
Color range : Limited
Color primaries : BT.709
Transfer characteristics : BT.709
Matrix coefficients : BT.709

Audio
ID : 2
Format : E-AC-3
Format/Info : Enhanced Audio Coding 3
Format settings, Endianness : Big
Codec ID : A_EAC3
Duration : 2 h 1 min
Bit rate mode : Constant
Bit rate : 224 kb/s
Channel(s) : 2 channels
Channel positions : Front: L R
Sampling rate : 48.0 kHz
Frame rate : 187.500 FPS (256 SPF)
Compression mode : Lossy
Stream size : 194 MiB (7%)
Language : English
Service kind : Complete Main
Default : Yes
Forced : No

Text
ID : 3
Format : UTF-8
Codec ID : S_TEXT/UTF8
Codec ID/Info : UTF-8 Plain Text
Duration : 2 h 0 min
Bit rate : 76 b/s
Count of elements : 2234
Stream size : 68.1 KiB (0%)
Title : SDH
Language : English
Default : No
Forced : No





The Toxic Avenger: The Musical (2018)


The Toxic Avenger: The Musical (2018)


The Toxic Avenger: The Musical (2018)


The Toxic Avenger: The Musical (2018)


The Toxic Avenger: The Musical (2018)