The Walking Dead S08E08

Posted By: Tavaz
720p (HD) / HDTV IMDb
The Walking Dead S08E08

The Walking Dead S08E08
HDTV | MKV | 1280x720 | Italian | H264 @ 1958 kbps | AC-3 @ 384 kbps | 59 min 42 s | 1 001 MiB
Genre: Dramma

Rick Grimes è un vice sceriffo vittima di un incidente durante uno scontro a fuoco con dei fuorilegge: colpito alla schiena, va in coma, lasciando tra le lacrime la moglie Lori e il figlio Carl. Il risveglio, poco tempo dopo, è traumatico: l'ospedale è distrutto ed è pieno di cadaveri. Rick non ci metterà molto a capire la situazione: il "virus" che sembrava essere controllato prima del suo incidente, ha preso piede. I morti si risvegliano ed attaccano i vivi, la cui presenza è sempre minore. Il vice sceriffo sfrutterà tutte le sue abilità di sopravvivenza e di capacità con le armi per sopravvivere ed uscire dalla città, trovando altri superstiti rifugiati tra i boschi: tra questi, ritrova la famiglia e il suo migliore amico Shane. Costretti poi a spostarsi, presto si accorgeranno che i veri nemici sono gli altri esseri umani, spinti unicamente dall'istinto di sopravvivenza.

The.Walking.Dead.8x08.E.Cosi.Che.Deve.Essere.ITA.720p.HDTVRip.x264-NovaRip.mkv (1001.1 MB)



General
Unique ID : 172996080939084105534311181527043265120 (0x8225D5502610BEDBA407F316824BD260)
Complete name : ./The.Walking.Dead.8x08.E.Cosi.Che.Deve.Essere.ITA.720p.HDTVRip.x264-NovaRip.mkv
Format : Matroska
Format version : Version 2
File size : 1 001 MiB
Duration : 59 min 42 s
Overall bit rate : 2 344 kb/s
Encoded date : UTC 2017-12-11 22:28:44
Writing application : mkvmerge v9.1.0 ('Little Earthquakes') 64bit
Writing library : libebml v1.3.3 + libmatroska v1.4.4

Video
ID : 1
Format : AVC
Format/Info : Advanced Video Codec
Format profile : High@L4
Format settings : CABAC / 6 Ref Frames
Format settings, CABAC : Yes
Format settings, RefFrames : 6 frames
Codec ID : V_MPEG4/ISO/AVC
Duration : 59 min 42 s
Bit rate : 1 958 kb/s
Width : 1 280 pixels
Height : 720 pixels
Display aspect ratio : 16:9
Frame rate mode : Constant
Frame rate : 25.000 FPS
Color space : YUV
Chroma subsampling : 4:2:0
Bit depth : 8 bits
Scan type : Progressive
Bits/(Pixel*Frame) : 0.085
Stream size : 836 MiB (84%)
Writing library : x264 core 148 r2762 90a61ec
Encoding settings : cabac=1 / ref=6 / deblock=1:-1:-1 / analyse=0x3:0x133 / me=umh / subme=7 / psy=1 / psy_rd=1.00:0.10 / mixed_ref=1 / me_range=16 / chroma_me=1 / trellis=2 / 8x8dct=1 / cqm=0 / deadzone=21,11 / fast_pskip=1 / chroma_qp_offset=-3 / threads=6 / lookahead_threads=1 / sliced_threads=0 / nr=0 / decimate=1 / interlaced=0 / bluray_compat=0 / constrained_intra=0 / bframes=4 / b_pyramid=2 / b_adapt=2 / b_bias=0 / direct=3 / weightb=1 / open_gop=0 / weightp=2 / keyint=250 / keyint_min=25 / scenecut=40 / intra_refresh=0 / rc_lookahead=60 / rc=crf / mbtree=1 / crf=20.5 / qcomp=0.60 / qpmin=0 / qpmax=69 / qpstep=4 / ip_ratio=1.40 / aq=1:0.90
Language : Italian
Default : Yes
Forced : No

Audio
ID : 2
Format : AC-3
Format/Info : Audio Coding 3
Format settings, Endianness : Big
Codec ID : A_AC3
Duration : 59 min 42 s
Bit rate mode : Constant
Bit rate : 384 kb/s
Channel(s) : 6 channels
Channel positions : Front: L C R, Side: L R, LFE
Sampling rate : 48.0 kHz
Frame rate : 31.250 FPS (1536 SPF)
Bit depth : 16 bits
Compression mode : Lossy
Stream size : 164 MiB (16%)
Language : Italian
Service kind : Complete Main
Default : Yes
Forced : No





The Walking Dead S08E08


The Walking Dead S08E08


The Walking Dead S08E08


The Walking Dead S08E08


The Walking Dead S08E08

All episodes