The Wilby Conspiracy (1975)

Posted By: Tavaz
1080p (FullHD) / BDRip IMDb
The Wilby Conspiracy (1975)

The Wilby Conspiracy (1975)
BluRay Remux | MKV | 1920x1080 | English | H264 @ 21413 kbps | FLAC @ 216 kbps | 1 h 45 min | 16.0 GiB
Subtitles: English
Genre: Action, Adventure, Drama, Thriller

Having spent 10 years in prison for nationalist activities, Shack Twala is finally ordered released by the South African Supreme Court but he finds himself almost immediately on the run after a run-in with the police. Assisted by his lawyer Rina Van Niekirk and visiting British engineer Jim Keogh, he heads for Capetown where he hopes to recover a stash of diamonds, meant to finance revolutionary activities, that he had entrusted to a dentist before his incarceration. Along the way, they are followed by Major Horn of the South African State security bureau and it becomes apparent that he has no intention of arresting them until they reach their final destination

8f846b3ef0c348eb81ad15071755d822.mkv (16.0 GB)



General
Complete name : ./8f846b3ef0c348eb81ad15071755d822.mkv
Format : Matroska
Format version : Version 4 / Version 2
File size : 16.0 GiB
Duration : 1 h 45 min
Overall bit rate mode : Variable
Overall bit rate : 21.7 Mb/s
Encoded date : UTC 2018-03-23 07:14:53
Writing application : mkvmerge v20.0.0 ('I Am The Sun') 64-bit
Writing library : libebml v1.3.5 + libmatroska v1.4.8

Video
ID : 1
Format : AVC
Format/Info : Advanced Video Codec
Format profile : High@L4.1
Format settings : CABAC / 4 Ref Frames
Format settings, CABAC : Yes
Format settings, RefFrames : 4 frames
Codec ID : V_MPEG4/ISO/AVC
Duration : 1 h 45 min
Bit rate mode : Variable
Bit rate : 21.4 Mb/s
Maximum bit rate : 38.4 Mb/s
Width : 1 920 pixels
Height : 1 080 pixels
Display aspect ratio : 16:9
Frame rate mode : Constant
Frame rate : 23.976 (24000/1001) FPS
Color space : YUV
Chroma subsampling : 4:2:0
Bit depth : 8 bits
Scan type : Progressive
Bits/(Pixel*Frame) : 0.431
Stream size : 15.8 GiB (99%)
Title : MPEG-4 AVC Video / 21457 kbps / 1080p / 23.976 fps / 16:9 / High Profile 4.1
Language : English
Default : Yes
Forced : No

Audio
ID : 2
Format : FLAC
Format/Info : Free Lossless Audio Codec
Codec ID : A_FLAC
Duration : 1 h 45 min
Bit rate mode : Variable
Bit rate : 216 kb/s
Channel(s) : 2 channels
Channel positions : Front: L R
Sampling rate : 48.0 kHz
Frame rate : 11.719 FPS (4096 SPF)
Bit depth : 16 bits
Stream size : 164 MiB (1%)
Title : FLAC Audio / 2.0 / 48 kHz / 216 kbps / 16-bit
Writing library : libFLAC 1.2.1 (UTC 2007-09-17)
Language : English
Default : Yes
Forced : No

Text
ID : 3
Format : PGS
Codec ID : S_HDMV/PGS
Codec ID/Info : Picture based subtitle format used on BDs/HD-DVDs
Duration : 1 h 42 min
Bit rate : 22.7 kb/s
Count of elements : 1914
Stream size : 16.6 MiB (0%)
Language : English
Default : No
Forced : No

Menu
00:00:00.000 : en:Chapter 1
00:09:40.579 : en:Chapter 2
00:20:10.917 : en:Chapter 3
00:33:48.859 : en:Chapter 4
00:51:17.907 : en:Chapter 5
01:03:31.265 : en:Chapter 6
01:20:04.215 : en:Chapter 7
01:32:15.529 : en:Chapter 8





The Wilby Conspiracy (1975)


The Wilby Conspiracy (1975)


The Wilby Conspiracy (1975)


The Wilby Conspiracy (1975)


The Wilby Conspiracy (1975)