Tags
Language
Tags

The Answer (2015)

Posted By: Without
1080p (FullHD) / WEB-DL IMDb
The Answer (2015)

The Answer (2015)
HDRip | MKV | 1 h 50 min | 1.29 GB | 720x388 | AVC@1300 kb/s | English AC3@384 kb/s, 6 ch
WEB-DL 720p | AVI | 1 h 50 min | 2.85 GB | 1280x690 | XviD@3292 kb/s | English AC3@384 kb/s, 6 ch
WEB-DL 1080p | MKV | 1 h 50 min | 4.28 GB | 1908x1028 | AVC@5164 kb/s | English AC3@384 kb/s, 6 ch
Subs: English, Español
Genre: Biography | Family | History

In the quest for finding a deeper meaning to life, this is a true story of an American seeker who forsakes the worldly life to enter upon an amazing spiritual journey of self realisation.

IMDB - 15 wins & 17 nominations.


General
The.Answer.2018.HDRip.AC3.x264-CMRG.mkv
Format : Matroska
Format version : Version 4 / Version 2
File size : 1.29 GB
Duration : 1 h 50 min
Overall bit rate : 1676 kb/s
Movie name : CMRG
Encoded date : UTC 2019-06-23 05:05:50
Writing application : mkvmerge v11.0.0 ('Alive') 64bit
Writing library : libebml v1.3.4 + libmatroska v1.4.5
Writing frontend : StaxRip v1.8.2.0

Video
ID : 1
Format : AVC
Format/Info : Advanced Video Codec
Format profile : High@L4.1
Format settings, CABAC : Yes
Format settings, ReFrames : 4 frames
Codec ID : V_MPEG4/ISO/AVC
Duration : 1 h 50 min
Bit rate : 1300 kb/s
Width : 720 pixels
Height : 388 pixels
Display aspect ratio : 1.85:1
Frame rate mode : Constant
Frame rate : 23.976 (24000/1001) FPS
Color space : YUV
Chroma subsampling : 4:2:0
Bit depth : 8 bits
Scan type : Progressive
Bits/(Pixel*Frame) : 0.194
Stream size : 1020 MB (77%)
Writing library : x264 core 155 r2901 7d0ff22
Encoding settings : cabac=1 / ref=1 / deblock=1:-1:-1 / analyse=0x3:0x113 / me=hex / subme=2 / psy=1 / psy_rd=1.00:0.15 / mixed_ref=0 / me_range=16 / chroma_me=1 / trellis=0 / 8x8dct=1 / cqm=0 / deadzone=21,11 / fast_pskip=1 / chroma_qp_offset=0 / threads=90 / lookahead_threads=3 / sliced_threads=0 / nr=0 / decimate=1 / interlaced=0 / bluray_compat=0 / constrained_intra=0 / bframes=3 / b_pyramid=2 / b_adapt=1 / b_bias=0 / direct=1 / weightb=1 / open_gop=0 / weightp=1 / keyint=250 / keyint_min=23 / scenecut=40 / intra_refresh=0 / rc_lookahead=10 / rc=abr / mbtree=1 / bitrate=1300 / ratetol=1.0 / qcomp=0.60 / qpmin=0 / qpmax=69 / qpstep=4 / ip_ratio=1.40 / aq=1:1.00
Default : Yes
Forced : No

Audio
ID : 2
Format : AC-3
Format/Info : Audio Coding 3
Mode extension : CM (complete main)
Format settings, Endianness : Big
Codec ID : A_AC3
Duration : 1 h 50 min
Bit rate mode : Constant
Bit rate : 384 kb/s
Channel(s) : 6 channels
Channel positions : Front: L C R, Side: L R, LFE
Sampling rate : 48.0 kHz
Frame rate : 31.250 FPS (1536 spf)
Bit depth : 16 bits
Compression mode : Lossy
Delay relative to video : 22 ms
Stream size : 304 MB (23%)
Language : English
Default : No
Forced : No

Text
ID : 3
Format : UTF-8
Codec ID : S_TEXT/UTF8
Codec ID/Info : UTF-8 Plain Text
Duration : 1 h 45 min
Bit rate : 68 b/s
Count of elements : 1261
Stream size : 52.7 KiB (0%)
Language : English
Default : Yes
Forced : No

Menu
00:00:00.000 : en:1
00:08:10.000 : en:2
00:17:57.000 : en:3
00:26:29.000 : en:4
00:36:57.000 : en:5
00:45:06.000 : en:6
00:54:16.000 : en:7
01:03:39.000 : en:8
01:14:41.000 : en:9
01:24:04.000 : en:10
01:34:57.000 : en:11
01:45:42.000 : en:12
01:50:30.998 : en:1


General
The.Answer.2018.720p.WEB-DL.XviD.AC3-FGT.avi
Format : AVI
Format/Info : Audio Video Interleave
Format profile : OpenDML
File size : 2.85 GB
Duration : 1 h 50 min
Overall bit rate : 3687 kb/s
Movie name : The.Answer.2018.720p.WEB-DL.XviD.AC3-FGT
Writing library : VirtualDub build 35491/release
Comment : The.Answer.2018.720p.WEB-DL.XviD.AC3-FGT

Video
ID : 0
Format : MPEG-4 Visual
Format profile : Simple@L5
Format settings, BVOP : No
Format settings, QPel : No
Format settings, GMC : No warppoints
Format settings, Matrix : Default (H.263)
Codec ID : XVID
Codec ID/Hint : XviD
Duration : 1 h 50 min
Bit rate : 3292 kb/s
Width : 1280 pixels
Height : 690 pixels
Display aspect ratio : 1.85:1
Frame rate : 23.976 (24000/1001) FPS
Color space : YUV
Chroma subsampling : 4:2:0
Bit depth : 8 bits
Scan type : Progressive
Compression mode : Lossy
Bits/(Pixel*Frame) : 0.155
Stream size : 2.54 GB (89%)
Writing library : Lavc58.1.100

Audio
ID : 1
Format : AC-3
Format/Info : Audio Coding 3
Mode extension : CM (complete main)
Format settings, Endianness : Big
Codec ID : 2000
Duration : 1 h 50 min
Bit rate mode : Constant
Bit rate : 384 kb/s
Channel(s) : 6 channels
Channel positions : Front: L C R, Side: L R, LFE
Sampling rate : 48.0 kHz
Frame rate : 31.250 FPS (1536 spf)
Bit depth : 16 bits
Compression mode : Lossy
Stream size : 304 MB (10%)
Alignment : Aligned on interleaves
Interleave, duration : 42 ms (1.00 video frame)
Interleave, preload duration : 512 ms


General
The.Answer.2018.1080p.WEB-DL.H264.AC3-EVO.mkv
Format : Matroska
Format version : Version 4 / Version 2
File size : 4.28 GB
Duration : 1 h 50 min
Overall bit rate : 5550 kb/s
Encoded date : UTC 2019-06-23 03:47:10
Writing application : mkvmerge v34.0.0 ('Sight and Seen') 64-bit
Writing library : libebml v1.3.7 + libmatroska v1.5.0

Video
ID : 2
Format : AVC
Format/Info : Advanced Video Codec
Format profile : High@L4
Format settings, CABAC : Yes
Format settings, ReFrames : 4 frames
Codec ID : V_MPEG4/ISO/AVC
Duration : 1 h 50 min
Bit rate : 5164 kb/s
Width : 1908 pixels
Height : 1028 pixels
Display aspect ratio : 1.85:1
Frame rate mode : Constant
Frame rate : 23.976 FPS
Color space : YUV
Chroma subsampling : 4:2:0
Bit depth : 8 bits
Scan type : Progressive
Bits/(Pixel*Frame) : 0.110
Stream size : 3.99 GB (93%)
Language : English
Default : Yes
Forced : No
Color range : Limited
Color primaries : BT.709
Transfer characteristics : BT.709
Matrix coefficients : BT.709

Audio
ID : 1
Format : AC-3
Format/Info : Audio Coding 3
Mode extension : CM (complete main)
Format settings, Endianness : Big
Codec ID : A_AC3
Duration : 1 h 50 min
Bit rate mode : Constant
Bit rate : 384 kb/s
Channel(s) : 6 channels
Channel positions : Front: L C R, Side: L R, LFE
Sampling rate : 48.0 kHz
Frame rate : 31.250 FPS (1536 spf)
Bit depth : 16 bits
Compression mode : Lossy
Delay relative to video : -42 ms
Stream size : 304 MB (7%)
Language : English
Default : Yes
Forced : No

Text #1
ID : 3
Format : UTF-8
Codec ID : S_TEXT/UTF8
Codec ID/Info : UTF-8 Plain Text
Duration : 1 h 45 min
Bit rate : 68 b/s
Count of elements : 1261
Stream size : 52.7 KiB (0%)
Language : English
Default : Yes
Forced : No

Text #2
ID : 4
Format : UTF-8
Codec ID : S_TEXT/UTF8
Codec ID/Info : UTF-8 Plain Text
Duration : 1 h 43 min
Bit rate : 54 b/s
Count of elements : 1127
Stream size : 41.1 KiB (0%)
Language : Spanish
Default : No
Forced : No

Menu
00:00:00.000 : en:1
00:08:10.000 : en:2
00:17:57.000 : en:3
00:26:29.000 : en:4
00:36:57.000 : en:5
00:45:06.000 : en:6
00:54:16.000 : en:7
01:03:39.000 : en:8
01:14:41.000 : en:9
01:24:04.000 : en:10
01:34:57.000 : en:11
01:45:42.000 : en:12
01:50:30.998 : en:1



HDRip Screenshots

The Answer (2015)

The Answer (2015)

The Answer (2015)


WEB-DL 720p Screenshots

The Answer (2015)

The Answer (2015)

The Answer (2015)


WEB-DL 1080p Screenshots

The Answer (2015)

The Answer (2015)

The Answer (2015)


Come Visit My Blog (•‿•)