Tags
Language
Tags

Arte - The Blade Runner Phenomenon (2021)

Posted By: Tutorial
1080p (FullHD) / HDTV IMDb
Arte - The Blade Runner Phenomenon (2021)

Arte - The Blade Runner Phenomenon (2021)
HDTV | 1920 x 1080 | .MKV/HEVC @ 1947 Kbps | 52 min 29 s | 783 MB
Audio: English AAC 135 Kbps, 2 channels | Subs: None
Genre: Documentary

In 1982 a film came to the cinema that is set in the near future of Los Angeles in 2019 and itself changed the future of cinema as it is one of the most influential science fiction films ever and achieved cult status among cinema buffs around the world. This success was not foreseeable at first, because at the time of its release the film was a flop at the box office.

The world of the Blade Runner is oppressively topical today. In his cult film, Ridley Scott conjures up a cold, rain-lashed, neon-glowing big city moloch who plunges into a social, economic and environmental dystopia. Today problems such as climate change, surveillance, overpowering corporations and artificial intelligence are more present than ever and the streets are populated with homeless people between high-rise buildings. Since Fritz Lang's "Metropolis", there has not been a science fiction film that, thanks to its production design and special effects, has developed such a visual impact as "Blade Runner".

All the more astonishing were the commercial failure and the press disaster that the film experienced when it opened in theaters. How the film nevertheless managed to become one of the most influential science fiction films of all time, this documentary tells viewers using behind-the-scenes material from various sets, photos, original locations in Los Angeles and illuminating interviewees with those involved in the unforgettable Film production.

General
Unique ID : 331806253076444305109151077232257959980 (0xF99F8F528EDA1FACD1BA79131896882C)
Complete name : The.Blade.Runner.Phenomenon.mkv
Format : Matroska
Format version : Version 4 / Version 2
File size : 783 MiB
Duration : 52 min 29 s
Overall bit rate : 2 085 kb/s
Movie name : The Blade Runner Phenomenon []
Encoded date : UTC 2021-06-13 08:27:29
Writing application : mkvmerge v57.0.0 ('Till The End') 64-bit
Writing library : libebml v1.4.2 + libmatroska v1.6.4

Video
ID : 1
Format : HEVC
Format/Info : High Efficiency Video Coding
Format profile : Main@L4@Main
Codec ID : V_MPEGH/ISO/HEVC
Duration : 52 min 29 s
Bit rate : 1 947 kb/s
Width : 1 920 pixels
Height : 1 080 pixels
Display aspect ratio : 16:9
Frame rate mode : Constant
Frame rate : 25.000 FPS
Color space : YUV
Chroma subsampling : 4:2:0
Bit depth : 8 bits
Bits/(Pixel*Frame) : 0.038
Stream size : 731 MiB (93%)
Writing library : x265 3.5+10-82786fccc:[Windows][MSVC 1929][64 bit] 8bit
Encoding settings : cpuid=1111039 / frame-threads=3 / numa-pools=12 / wpp / no-pmode / no-pme / no-psnr / no-ssim / log-level=2 / input-csp=1 / input-res=1920x1080 / interlace=0 / total-frames=78746 / level-idc=0 / high-tier=1 / uhd-bd=0 / ref=3 / no-allow-non-conformance / no-repeat-headers / annexb / no-aud / no-eob / no-eos / no-hrd / info / hash=0 / no-temporal-layers / no-open-gop / min-keyint=25 / keyint=250 / gop-lookahead=12 / bframes=6 / b-adapt=2 / b-pyramid / bframe-bias=0 / rc-lookahead=20 / lookahead-slices=6 / scenecut=40 / hist-scenecut=0 / radl=0 / no-splice / no-intra-refresh / ctu=64 / min-cu-size=8 / no-rect / no-amp / max-tu-size=32 / tu-inter-depth=1 / tu-intra-depth=1 / limit-tu=0 / rdoq-level=0 / dynamic-rd=0.00 / no-ssim-rd / signhide / no-tskip / nr-intra=0 / nr-inter=0 / no-constrained-intra / strong-intra-smoothing / max-merge=3 / limit-refs=1 / no-limit-modes / me=2 / subme=2 / merange=48 / temporal-mvp / no-frame-dup / hme / Level / merange / L0,L1,L2=16,32,48 / weightp / weightb / no-analyze-src-pics / deblock=0:0 / sao / no-sao-non-deblock / rd=3 / selective-sao=4 / early-skip / rskip / no-fast-intra / no-tskip-fast / no-cu-lossless / b-intra / no-splitrd-skip / rdpenalty=0 / psy-rd=2.00 / psy-rdoq=0.00 / no-rd-refine / no-lossless / cbqpoffs=0 / crqpoffs=0 / rc=crf / crf=19.0 / qcomp=0.60 / qpstep=4 / stats-write=0 / stats-read=0 / ipratio=1.40 / pbratio=1.30 / aq-mode=4 / aq-strength=1.00 / cutree / zone-count=0 / no-strict-cbr / qg-size=32 / no-rc-grain / qpmax=69 / qpmin=0 / no-const-vbv / sar=1 / overscan=0 / videoformat=5 / range=0 / colorprim=1 / transfer=1 / colormatrix=1 / chromaloc=0 / display-window=0 / cll=0,0 / min-luma=0 / max-luma=255 / log2-max-poc-lsb=8 / vui-timing-info / vui-hrd-info / slices=1 / no-opt-qp-pps / no-opt-ref-list-length-pps / no-multi-pass-opt-rps / scenecut-bias=0.05 / hist-threshold=0.03 / no-opt-cu-delta-qp / no-aq-motion / no-hdr10 / no-hdr10-opt / no-dhdr10-opt / no-idr-recovery-sei / analysis-reuse-level=0 / analysis-save-reuse-level=0 / analysis-load-reuse-level=0 / scale-factor=0 / refine-intra=0 / refine-inter=0 / refine-mv=1 / refine-ctu-distortion=0 / no-limit-sao / ctu-info=0 / no-lowpass-dct / refine-analysis-type=0 / copy-pic=1 / max-ausize-factor=1.0 / no-dynamic-refine / no-single-sei / no-hevc-aq / no-svt / no-field / qp-adaptation-range=1.00 / scenecut-aware-qp=0conformance-window-offsets / right=0 / bottom=0 / decoder-max-rate=0 / no-vbv-live-multi-pass
Language : English
Default : Yes
Forced : No
Color range : Limited
Color primaries : BT.709
Transfer characteristics : BT.709
Matrix coefficients : BT.709

Audio
ID : 2
Format : AAC
Format/Info : Advanced Audio Codec
Format profile : LC
Codec ID : A_AAC-2
Duration : 52 min 29 s
Bit rate : 135 kb/s
Channel(s) : 2 channels
Channel positions : Front: L R
Sampling rate : 48.0 kHz
Frame rate : 46.875 FPS (1024 SPF)
Compression mode : Lossy
Stream size : 50.8 MiB (6%)
Language : English
Default : Yes
Forced : No
Screenshots

Arte - The Blade Runner Phenomenon (2021)

Arte - The Blade Runner Phenomenon (2021)

Arte - The Blade Runner Phenomenon (2021)

Welcome to my blog - daily update!

Arte - The Blade Runner Phenomenon (2021)