BBC - The Brit who Tried to Kill Trump (2017)

Posted By: Tutorial
1080p (FullHD) / HDTV
BBC - The Brit who Tried to Kill Trump (2017)

BBC - The Brit who Tried to Kill Trump (2017)
HDTV | 1920 x 1080 | .MKV/AVC @ 4175 Kbps | 41 min 36 s | 1.27 GB
Audio: English AC-3 192 Kbps, 2 channels | Subs: English
Genre: Documentary

In May 2016, parents of a 20 year old named Michael Sandford had reported that their son had gone missing in America. Twenty three days later Michael turned up at a Donald Trump campaign rally in Las Vegas.

Shortly after Trump took to the stage Michael approached a police officer, seconds later he attempted to take the officers gun. At first it was unclear as to what his intentions were but when questioned by the secret service Michael stated that he planned on shooting and killing Donald Trump, saying that he was a racist who deserved to die.

Michael quickly found himself in the middle of a media storm and at the mercy of America’s notoriously harsh justice system. After pleading guilty, Michael faced many years behind bars. This film set out on a journey to discover how it was that a young middle-class boy from suburban Surrey who suffers from a form of Autism known Asperger’s end up trying to assassinate the most controversial and high-profile man in the world.

Following Michael’s family we witness their uncertainty of the situation unfold as the man their son attempted to kill becomes president of the United States.

General
Unique ID : 223310625916317769625387740688413812874 (0xA8000FE817D3BFEBAB6DD63834A2E88A)
Complete name : BBC.The.Brit.Who.Tried.to.Kill.Trump.mkv
Format : Matroska
Format version : Version 4 / Version 2
File size : 1.27 GiB
Duration : 41 min 36 s
Overall bit rate : 4 369 kb/s
Encoded date : UTC 2017-07-28 03:40:20
Writing application : mkvmerge v14.0.0 ('Flow') 64bit
Writing library : libebml v1.3.4 + libmatroska v1.4.5

Video
ID : 1
Format : AVC
Format/Info : Advanced Video Codec
Format profile : High@L4
Format settings, CABAC : Yes
Format settings, ReFrames : 4 frames
Codec ID : V_MPEG4/ISO/AVC
Duration : 41 min 36 s
Bit rate : 4 175 kb/s
Width : 1 920 pixels
Height : 1 080 pixels
Display aspect ratio : 16:9
Frame rate mode : Variable
Frame rate : 25.630 FPS
Original frame rate : 25.000 FPS
Standard : Component
Color space : YUV
Chroma subsampling : 4:2:0
Bit depth : 8 bits
Scan type : MBAFF
Bits/(Pixel*Frame) : 0.079
Stream size : 1.21 GiB (96%)
Default : Yes
Forced : No
Color range : Limited
Color primaries : BT.709
Transfer characteristics : BT.709
Matrix coefficients : BT.709

Audio
ID : 2
Format : AC-3
Format/Info : Audio Coding 3
Format settings, Endianness : Big
Codec ID : A_AC3
Duration : 41 min 36 s
Bit rate mode : Constant
Bit rate : 192 kb/s
Channel(s) : 2 channels
Channel positions : Front: L R
Sampling rate : 48.0 kHz
Frame rate : 31.250 FPS (1536 spf)
Bit depth : 16 bits
Compression mode : Lossy
Stream size : 57.1 MiB (4%)
Language : English
Service kind : Complete Main
Default : Yes
Forced : No

Text
ID : 3
Format : UTF-8
Codec ID : S_TEXT/UTF8
Codec ID/Info : UTF-8 Plain Text
Duration : 40 min 12 s
Bit rate : 87 b/s
Count of elements : 621
Stream size : 25.8 KiB (0%)
Language : English
Default : Yes
Forced : No
Screenshots

BBC - The Brit who Tried to Kill Trump (2017)

BBC - The Brit who Tried to Kill Trump (2017)

Welcome to my blog - daily update!

BBC - The Brit who Tried to Kill Trump (2017)