Subcategories

The Comedian (2016)

Posted By: JohnSmith
The Comedian (2016)

The Comedian (2016)
HDRip | AVI / XviD@1384 kb/s | 720x384 | 1h 59mn | 1.38 GB | English: AC3, 384 kb/s (6 ch)
WEB-DL 1080p | MKV / AVC@5134 kb/s | 1920x1032 | 1h 59mn | 4.72 GB | English: AC3, 384 kb/s (6 ch)
Genre: Comedy

A look at the life of an aging insult comic named Jack Burke.

IMDB - 1 win.



General
Complete name : D:\Downloads\The.Comedian.2016.HDRip.XViD.AC3-ETRG\The.Comedian.2016.HDRip.XViD.AC3-ETRG.avi
Format : AVI
Format/Info : Audio Video Interleave
File size : 1.38 GiB
Duration : 1 h 59 min
Overall bit rate : 1 649 kb/s
Writing library : VirtualDub build 35491/release

Video
ID : 0
Format : MPEG-4 Visual
Format profile : Advanced Simple@L5
Format settings, BVOP : 2
Format settings, QPel : No
Format settings, GMC : No warppoints
Format settings, Matrix : Default (H.263)
Muxing mode : Packed bitstream
Codec ID : XVID
Codec ID/Hint : XviD
Duration : 1 h 59 min
Bit rate : 1 384 kb/s
Width : 720 pixels
Height : 384 pixels
Display aspect ratio : 1.85:1
Frame rate : 23.976 (24000/1001) FPS
Color space : YUV
Chroma subsampling : 4:2:0
Bit depth : 8 bits
Scan type : Progressive
Compression mode : Lossy
Bits/(Pixel*Frame) : 0.209
Stream size : 1.16 GiB (84%)
Writing library : XviD 65

Audio
ID : 1
Format : AC-3
Format/Info : Audio Coding 3
Format settings, Endianness : Big
Codec ID : 2000
Duration : 1 h 59 min
Bit rate mode : Constant
Bit rate : 256 kb/s
Channel(s) : 6 channels
Channel positions : Front: L C R, Side: L R, LFE
Sampling rate : 48.0 kHz
Frame rate : 31.250 FPS (1536 spf)
Bit depth : 16 bits
Compression mode : Lossy
Stream size : 220 MiB (16%)
Alignment : Aligned on interleaves
Interleave, duration : 42 ms (1.00 video frame)
Interleave, preload duratio : 512 ms
Service kind : Complete Main





General
Unique ID : 172356786832671033991669703816800853496 (0x81AAB5AE1BE070C8B08DC6B4E6DF5DF8)
Complete name : D:\The.Comedian.2017.1080p.WEB-DL.H264.AC3-EVO\The.Comedian.2017.1080p.WEB-DL.H264.AC3-EVO.mkv
Format : Matroska
Format version : Version 4 / Version 2
File size : 4.72 GiB
Duration : 1 h 59 min
Overall bit rate : 5 630 kb/s
Movie name : EVO
Encoded date : UTC 2017-05-02 11:52:26
Writing application : mkvmerge v6.7.0 ('Back to the Ground') 64bit built on Jan 8 2014 15:10:52
Writing library : libebml v1.3.0 + libmatroska v1.4.1

Video
ID : 1
Format : AVC
Format/Info : Advanced Video Codec
Format profile : High@L4
Format settings, CABAC : Yes
Format settings, ReFrames : 4 frames
Format settings, GOP : M=1, N=2
Codec ID : V_MPEG4/ISO/AVC
Duration : 1 h 59 min
Bit rate : 5 134 kb/s
Width : 1 920 pixels
Height : 1 032 pixels
Display aspect ratio : 1.85:1
Frame rate mode : Constant
Frame rate : 23.976 FPS
Color space : YUV
Chroma subsampling : 4:2:0
Bit depth : 8 bits
Scan type : Progressive
Bits/(Pixel*Frame) : 0.108
Stream size : 4.30 GiB (91%)
Title : EVO
Language : English
Default : Yes
Forced : No
Color range : Limited
Color primaries : BT.709
Transfer characteristics : BT.709
Matrix coefficients : BT.709

Audio
ID : 2
Format : AC-3
Format/Info : Audio Coding 3
Mode extension : CM (complete main)
Format settings, Endianness : Big
Codec ID : A_AC3
Duration : 1 h 59 min
Bit rate mode : Constant
Bit rate : 384 kb/s
Channel(s) : 6 channels
Channel positions : Front: L C R, Side: L R, LFE
Sampling rate : 48.0 kHz
Frame rate : 31.250 FPS (1536 spf)
Bit depth : 16 bits
Compression mode : Lossy
Stream size : 329 MiB (7%)
Language : English
Default : Yes
Forced : No

Menu
00:00:00.000 : en:1
00:05:06.765 : en:2
00:12:39.300 : en:3
00:17:56.575 : en:4
00:26:26.376 : en:5
00:34:05.877 : en:6
00:41:25.483 : en:7
00:47:05.739 : en:8
00:54:47.450 : en:9
01:01:17.965 : en:10
01:08:39.031 : en:11
01:18:41.091 : en:12
01:26:11.124 : en:13
01:32:44.517 : en:14
01:39:12.613 : en:15
01:48:39.513 : en:16




Screenshots HDRip

The Comedian (2016)

The Comedian (2016)

The Comedian (2016)


Screenshots WEB-DL 1080p

The Comedian (2016)

The Comedian (2016)

The Comedian (2016)