The Demolition of Truth-Psychologists Examine 9/11 (2016)

Posted By: notbanned
The Demolition of Truth-Psychologists Examine 9/11 (2016)

The Demolition of Truth-Psychologists Examine 9/11 (2016)
WEBRip | 1920x1080 | .MKV/AVC @ 4167 Kbps | 1 h 47 min | 3.30 GiB
Audio: English EAC3 224 kbps, 2 channels | Subs: English
Genre: Documentary

Respected social scientists examine America's cognitive dissonance. Our inability to reconcile the observable facts and science of 9/11 with our governments lazy, sloppy explanations. Our governments activities since 9/11 have left many Americans very bewildered. The scientific facts of 9/11 from the government don't add up. Now we are uneasy and debate has been banned from TV. What do we do?
More info


General
Unique ID : 46380502037983452289156273259060158562 (0x22E48F4D281819BB250BF234C7906062)
Complete name : The.Demolition.of.Truth.Psychologists.Examine.9.11.2016.1080p.mkv
Format : Matroska
Format version : Version 4 / Version 2
File size : 3.30 GiB
Duration : 1 h 47 min
Overall bit rate mode : Variable
Overall bit rate : 4 393 kb/s

Video
ID : 1
Format : AVC
Format/Info : Advanced Video Codec
Format profile : High@L4
Format settings, CABAC : Yes
Format settings, ReFrames : 4 frames
Codec ID : V_MPEG4/ISO/AVC
Duration : 1 h 47 min
Bit rate mode : Variable
Bit rate : 4 167 kb/s
Maximum bit rate : 15.0 Mb/s
Width : 1 920 pixels
Height : 1 080 pixels
Display aspect ratio : 16:9
Frame rate mode : Constant
Frame rate : 29.970 (30000/1001) FPS
Color space : YUV
Chroma subsampling : 4:2:0
Bit depth : 8 bits
Scan type : Progressive
Bits/(Pixel*Frame) : 0.067
Stream size : 3.13 GiB (95%)
Default : Yes
Forced : No
Color range : Limited
Color primaries : BT.709
Transfer characteristics : BT.709
Matrix coefficients : BT.709

Audio
ID : 2
Format : E-AC-3
Format/Info : Enhanced Audio Coding 3
Format settings, Endianness : Big
Codec ID : A_EAC3
Duration : 1 h 47 min
Bit rate mode : Constant
Bit rate : 224 kb/s
Channel(s) : 2 channels
Channel positions : Front: L R
Sampling rate : 48.0 kHz
Frame rate : 187.500 FPS (256 spf)
Compression mode : Lossy
Stream size : 173 MiB (5%)
Language : English
Service kind : Complete Main
Default : Yes
Forced : No

Text
ID : 3
Format : UTF-8
Codec ID : S_TEXT/UTF8
Codec ID/Info : UTF-8 Plain Text
Duration : 1 h 46 min
Bit rate : 98 b/s
Count of elements : 1795
Stream size : 76.7 KiB (0%)
Language : English
Default : No
Forced : No


Screenshots:

The Demolition of Truth-Psychologists Examine 9/11 (2016)

The Demolition of Truth-Psychologists Examine 9/11 (2016)

The Demolition of Truth-Psychologists Examine 9/11 (2016)

The Demolition of Truth-Psychologists Examine 9/11 (2016)