BBC - The Fir Tree (2013)

Posted By: notbanned
BBC - The Fir Tree (2013)

BBC - The Fir Tree (2013)
HDTV | 1280x720 | .MKV/AVC @ 2120 Kbps | 26mn 5s | Audio: English AC3 192 kbps, 2 channels | Subs: English | 440 MiB
Genre: Documentary

Inspired by Hans Christian Anderson's fairytale, this remarkable Danish film tells the story of a Christmas tree from a most unusual angle - through the 'voice' of the tree itself. The tree has big ambitions, doing everything it can to grow so tall that it reaches the sky. Featuring extraordinary photography, the film follows the adventures of its life from sapling to maturity, culminating in a triumphal Christmas Day. Along the way, viewers experience the natural - and human - world from a strangely moving perspective.


General
Unique ID : 0 (0x0)
Complete name : The.Fir.Tree.mkv
Format : Matroska
Format version : Version 2
File size : 440 MiB
Duration : 26mn 5s
Overall bit rate : 2 359 Kbps
Encoded date : UTC 2010-02-22 21:41:29
Writing application : no_variable_data
Writing library : no_variable_data

Video
ID : 1
Format : AVC
Format/Info : Advanced Video Codec
Format profile : High@L4.1
Format settings, CABAC : Yes
Format settings, ReFrames : 5 frames
Codec ID : V_MPEG4/ISO/AVC
Duration : 26mn 5s
Bit rate : 2 120 Kbps
Width : 1 280 pixels
Height : 720 pixels
Display aspect ratio : 16:9
Frame rate : 25.000 fps
Color space : YUV
Chroma subsampling : 4:2:0
Bit depth : 8 bits
Scan type : Progressive
Bits/(Pixel*Frame) : 0.092
Stream size : 396 MiB (90%)
Writing library : x264 core 140 r2377 1ca7bb9
Encoding settings : cabac=1 / ref=5 / deblock=1:0:0 / analyse=0x3:0x113 / me=umh / subme=8 / psy=1 / psy_rd=1.00:0.00 / mixed_ref=1 / me_range=16 / chroma_me=1 / trellis=1 / 8x8dct=1 / cqm=0 / deadzone=21,11 / fast_pskip=1 / chroma_qp_offset=-2 / threads=12 / lookahead_threads=2 / sliced_threads=0 / nr=0 / decimate=1 / interlaced=0 / bluray_compat=0 / constrained_intra=0 / bframes=3 / b_pyramid=2 / b_adapt=2 / b_bias=0 / direct=3 / weightb=1 / open_gop=0 / weightp=2 / keyint=250 / keyint_min=25 / scenecut=40 / intra_refresh=0 / rc_lookahead=50 / rc=crf / mbtree=1 / crf=21.0 / qcomp=0.60 / qpmin=0 / qpmax=69 / qpstep=4 / ip_ratio=1.40 / aq=1:1.00
Default : Yes
Forced : No
Matrix coefficients : BT.709-5, BT.1361, IEC 61966-2-4 709, SMPTE RP177

Audio
ID : 2
Format : AC-3
Format/Info : Audio Coding 3
Mode extension : CM (complete main)
Format settings, Endianness : Big
Codec ID : A_AC3
Duration : 26mn 5s
Bit rate mode : Constant
Bit rate : 192 Kbps
Channel(s) : 2 channels
Channel positions : Front: L R
Sampling rate : 48.0 KHz
Bit depth : 16 bits
Compression mode : Lossy
Stream size : 35.8 MiB (8%)
Language : English
Default : Yes
Forced : No


Screenshots:

BBC - The Fir Tree (2013)

BBC - The Fir Tree (2013)

BBC - The Fir Tree (2013)

BBC - The Fir Tree (2013)