The Hunger Games: Mockingjay - Part 2 (2015)

Posted By: JohnSmith
The Hunger Games: Mockingjay - Part 2 (2015)

The Hunger Games: Mockingjay - Part 2 (2015)
HDRip | AVI / ZviD@1320 kb/s | 720x304 | 2h 16mn | 1.64 GB | English: AC3, 384 kb/s (6 ch)
WEB-DL 720p | MKV / AVC@3893 kb/s | 1280x530 | 2h 16mn | 4.17 GB | English: AC3, 384 kb/s (6 ch)
WEB-DL 1080p | MKV / AVC@4379 kb/s | 1912x792 | 2h 16mn | 4.65 GB | English: AC3, 384 kb/s (6 ch)
HDRip 720p | MKV / HEVC@1754 kb/s | 1280x544 | 2h 16mn | 2.15 GB | English: AC3, 448 kb/s (6 ch) | Subtiltes: English
Genre: Adventure | Sci-Fi

As the war of Panem escalates to the destruction of other districts, Katniss Everdeen, the reluctant leader of the rebellion, must bring together an army against President Snow, while all she holds dear hangs in the balance.

IMDB - 8 nominations.



General
Complete name : C:\The.Hunger.Games.Mockingjay.Part.2.2015.HDRip.avi
Format : AVI
Format/Info : Audio Video Interleave
File size : 1.64 GiB
Duration : 2h 16mn
Overall bit rate : 1 713 Kbps
Writing application : VirtualDubMod 1.5.10.3 | www.virtualdub-fr.org || (build 2550/release)
Writing library : VirtualDubMod build 2550/release

Video
ID : 0
Format : MPEG-4 Visual
Format profile : Advanced Simple@L5
Format settings, BVOP : 2
Format settings, QPel : No
Format settings, GMC : No warppoints
Format settings, Matrix : Default (MPEG)
Codec ID : XVID
Codec ID/Hint : XviD
Duration : 2h 16mn
Bit rate : 1 320 Kbps
Width : 720 pixels
Height : 304 pixels
Display aspect ratio : 2.35:1
Frame rate : 23.976 fps
Color space : YUV
Chroma subsampling : 4:2:0
Bit depth : 8 bits
Scan type : Progressive
Compression mode : Lossy
Bits/(Pixel*Frame) : 0.251
Stream size : 1.26 GiB (77%)
Writing library : XviD 1.2.1 (UTC 2008-12-04)

Audio
ID : 1
Format : AC-3
Format/Info : Audio Coding 3
Mode extension : CM (complete main)
Format settings, Endianness : Big
Codec ID : 2000
Duration : 2h 16mn
Bit rate mode : Constant
Bit rate : 384 Kbps
Channel(s) : 6 channels
Channel positions : Front: L C R, Side: L R, LFE
Sampling rate : 48.0 KHz
Compression mode : Lossy
Stream size : 376 MiB (22%)
Alignment : Split accross interleaves
Interleave, duration : 42 ms (1.00 video frame)
Interleave, preload duratio : 500 ms



General
Unique ID : 231920270107950360938943711658876244482 (0xAE7A3823769E036B97133CFD491E9202)
Complete name : C:\The.Hunger.Games.Mockingjay.Part.2.2015.720p.WEB-DL.mkv
Format : Matroska
Format version : Version 4 / Version 2
File size : 4.17 GiB
Duration : 2h 16mn
Overall bit rate : 4 364 Kbps
Encoded date : UTC 2016-03-08 05:28:00
Writing application : mkvmerge v8.3.0 ('Over the Horizon') 64bit
Writing library : libebml v1.3.1 + libmatroska v1.4.2
DURATION : 02:16:54.688000000
NUMBER_OF_FRAMES : 256709
NUMBER_OF_BYTES : 394305024
_STATISTICS_WRITING_APP : mkvmerge v8.3.0 ('Over the Horizon') 64bit
_STATISTICS_WRITING_DATE_UT : 2016-03-08 05:28:00
_STATISTICS_TAGS : BPS DURATION NUMBER_OF_FRAMES NUMBER_OF_BYTES

Video
ID : 1
Format : AVC
Format/Info : Advanced Video Codec
Format profile : Main@L3.1
Format settings, CABAC : No
Format settings, ReFrames : 2 frames
Codec ID : V_MPEG4/ISO/AVC
Duration : 2h 16mn
Bit rate : 3 893 Kbps
Width : 1 280 pixels
Height : 530 pixels
Display aspect ratio : 2.40:1
Frame rate mode : Constant
Frame rate : 23.976 fps
Color space : YUV
Chroma subsampling : 4:2:0
Bit depth : 8 bits
Scan type : Progressive
Bits/(Pixel*Frame) : 0.239
Stream size : 3.72 GiB (89%)
Language : English
Default : Yes
Forced : No
Color range : Limited
Color primaries : BT.709
Transfer characteristics : BT.709
Matrix coefficients : BT.709

Audio
ID : 2
Format : AC-3
Format/Info : Audio Coding 3
Mode extension : CM (complete main)
Format settings, Endianness : Big
Codec ID : A_AC3
Duration : 2h 16mn
Bit rate mode : Constant
Bit rate : 384 Kbps
Channel(s) : 6 channels
Channel positions : Front: L C R, Side: L R, LFE
Sampling rate : 48.0 KHz
Compression mode : Lossy
Stream size : 376 MiB (9%)
Language : English
Default : Yes
Forced : No

Menu
00:00:00.000 : en:1
00:06:57.000 : en:2
00:12:13.000 : en:3
00:19:24.000 : en:4
00:28:14.000 : en:5
00:33:44.000 : en:6
00:43:25.000 : en:7
00:49:57.000 : en:8
00:59:10.000 : en:9
01:04:35.000 : en:10
01:09:22.000 : en:11
01:17:16.000 : en:12
01:23:21.000 : en:13
01:29:52.000 : en:14
01:37:05.000 : en:15
01:43:49.000 : en:16
01:49:02.000 : en:17
01:53:07.000 : en:18
01:59:15.000 : en:19
02:05:28.000 : en:20



General
Unique ID : 247355475688946884817322237204153378673 (0xBA16EE8769E8A120BAA30664CF9E2771)
Complete name : C:\The.Hunger.Games.Mockingjay.Part.2.2015.1080p.WEB-DL.mkv
Format : Matroska
Format version : Version 4 / Version 2
File size : 4.65 GiB
Duration : 2h 16mn
Overall bit rate : 4 859 Kbps
Encoded date : UTC 2016-03-08 05:22:28
Writing application : mkvmerge v8.3.0 ('Over the Horizon') 64bit
Writing library : libebml v1.3.1 + libmatroska v1.4.2
DURATION : 02:16:54.688000000
NUMBER_OF_FRAMES : 256709
NUMBER_OF_BYTES : 394305024
_STATISTICS_WRITING_APP : mkvmerge v8.3.0 ('Over the Horizon') 64bit
_STATISTICS_WRITING_DATE_UT : 2016-03-08 05:22:28
_STATISTICS_TAGS : BPS DURATION NUMBER_OF_FRAMES NUMBER_OF_BYTES

Video
ID : 1
Format : AVC
Format/Info : Advanced Video Codec
Format profile : High@L4
Format settings, CABAC : Yes
Format settings, ReFrames : 5 frames
Codec ID : V_MPEG4/ISO/AVC
Duration : 2h 16mn
Bit rate : 4 379 Kbps
Width : 1 912 pixels
Height : 792 pixels
Display aspect ratio : 2.40:1
Frame rate mode : Constant
Frame rate : 23.976 fps
Color space : YUV
Chroma subsampling : 4:2:0
Bit depth : 8 bits
Scan type : Progressive
Bits/(Pixel*Frame) : 0.121
Stream size : 4.19 GiB (90%)
Language : English
Default : Yes
Forced : No
Color range : Limited
Color primaries : BT.709
Transfer characteristics : BT.709
Matrix coefficients : BT.709

Audio
ID : 2
Format : AC-3
Format/Info : Audio Coding 3
Mode extension : CM (complete main)
Format settings, Endianness : Big
Codec ID : A_AC3
Duration : 2h 16mn
Bit rate mode : Constant
Bit rate : 384 Kbps
Channel(s) : 6 channels
Channel positions : Front: L C R, Side: L R, LFE
Sampling rate : 48.0 KHz
Compression mode : Lossy
Stream size : 376 MiB (8%)
Language : English
Default : Yes
Forced : No

Menu
00:00:00.000 : en:1
00:06:57.000 : en:2
00:12:13.000 : en:3
00:19:24.000 : en:4
00:28:14.000 : en:5
00:33:44.000 : en:6
00:43:25.000 : en:7
00:49:57.000 : en:8
00:59:10.000 : en:9
01:04:35.000 : en:10
01:09:22.000 : en:11
01:17:16.000 : en:12
01:23:21.000 : en:13
01:29:52.000 : en:14
01:37:05.000 : en:15
01:43:49.000 : en:16
01:49:02.000 : en:17
01:53:07.000 : en:18
01:59:15.000 : en:19
02:05:28.000 : en:20



General
Unique ID : 206759680245899169309437213987850875376 (0x9B8C77485A0F02B594ECCACDA302F1F0)
Complete name : D:\Downloads\The.Hunger.Games.Mockingjay.Part.2.2015.720p.HDRiP.HEVC.x265.AC3-MAJESTiC\The.Hunger.Games.Mockingjay.Part.2.2015.720p.HDRiP.HEVC.x265.AC3-MAJESTiC.mkv
Format : Matroska
Format version : Version 2
File size : 2.15 GiB
Duration : 2h 16mn
Overall bit rate : 2 247 Kbps
Encoded date : UTC 2016-03-08 18:46:05
Writing application : mkvmerge v4.3.0 ('Escape from the Island') built on Sep 5 2010 10:30:51
Writing library : libebml v1.0.0 + libmatroska v1.0.0

Video
ID : 1
Format : HEVC
Format/Info : High Efficiency Video Coding
Format profile : Main@L3.1@Main
Codec ID : V_MPEGH/ISO/HEVC
Duration : 2h 16mn
Bit rate : 1 754 Kbps
Width : 1 280 pixels
Height : 544 pixels
Display aspect ratio : 2.40:1
Original display aspect rat : 2.40:1
Frame rate mode : Constant
Frame rate : 23.976 fps
Color space : YUV
Chroma subsampling : 4:2:0
Bit depth : 8 bits
Bits/(Pixel*Frame) : 0.105
Stream size : 1.68 GiB (78%)
Writing library : x265 1.7+234-b1af4c36f48a:[Windows][GCC 4.8.2][64 bit] 8bit
Encoding settings : wpp / ctu=64 / min-cu-size=8 / max-tu-size=32 / tu-intra-depth=1 / tu-inter-depth=1 / me=1 / subme=2 / merange=57 / no-rect / no-amp / max-merge=2 / temporal-mvp / early-skip / rdpenalty=0 / no-tskip / no-tskip-fast / strong-intra-smoothing / no-lossless / no-cu-lossless / no-constrained-intra / no-fast-intra / open-gop / no-temporal-layers / interlace=0 / keyint=250 / min-keyint=23 / scenecut=40 / rc-lookahead=35 / lookahead-slices=0 / bframes=6 / bframe-bias=0 / b-adapt=2 / ref=6 / limit-refs=0 / weightp / no-weightb / aq-mode=1 / aq-strength=1.00 / cbqpoffs=0 / crqpoffs=0 / rd=3 / psy-rd=2.00 / rdoq-level=0 / psy-rdoq=0.00 / signhide / deblock / sao / no-sao-non-deblock / b-pyramid / cutree / rc=2 / pass / bitrate=1797 / qcomp=0.60 / qpmin=0 / qpmax=51 / qpstep=4 / cplxblur=20.0 / qblur=0.5 / ipratio=1.40 / pbratio=1.30
Language : English
Default : Yes
Forced : No

Audio
ID : 4
Format : AC-3
Format/Info : Audio Coding 3
Mode extension : CM (complete main)
Format settings, Endianness : Big
Muxing mode : Header stripping
Codec ID : A_AC3
Duration : 2h 16mn
Bit rate mode : Constant
Bit rate : 448 Kbps
Channel(s) : 6 channels
Channel positions : Front: L C R, Side: L R, LFE
Sampling rate : 48.0 KHz
Compression mode : Lossy
Stream size : 439 MiB (20%)
Language : English
Default : No
Forced : No

Text #1
ID : 2
Format : UTF-8
Codec ID : S_TEXT/UTF8
Codec ID/Info : UTF-8 Plain Text
Title : SRT
Language : English
Default : No
Forced : No

Text #2
ID : 3
Format : SSA
Codec ID : S_TEXT/SSA
Codec ID/Info : Sub Station Alpha
Compression mode : Lossless
Title : SSA
Language : English
Default : No
Forced : No

Menu
00:00:00.000 : en:1
00:06:57.000 : en:2
00:12:13.000 : en:3
00:19:24.000 : en:4
00:28:14.000 : en:5
00:33:44.000 : en:6
00:43:25.000 : en:7
00:49:57.000 : en:8
00:59:10.000 : en:9
01:04:35.000 : en:10
01:09:22.000 : en:11
01:17:16.000 : en:12
01:23:21.000 : en:13
01:29:52.000 : en:14
01:37:05.000 : en:15
01:43:49.000 : en:16
01:49:02.000 : en:17
01:53:07.000 : en:18
01:59:15.000 : en:19
02:05:28.000 : en:20


Screenshots HDRip

The Hunger Games: Mockingjay - Part 2 (2015)

The Hunger Games: Mockingjay - Part 2 (2015)

The Hunger Games: Mockingjay - Part 2 (2015)


Screenshots WEB-DL 720p

The Hunger Games: Mockingjay - Part 2 (2015)

The Hunger Games: Mockingjay - Part 2 (2015)

The Hunger Games: Mockingjay - Part 2 (2015)


Screenshots WEB-DL 1080p

The Hunger Games: Mockingjay - Part 2 (2015)

The Hunger Games: Mockingjay - Part 2 (2015)

The Hunger Games: Mockingjay - Part 2 (2015)


Screenshots HDRip 720p

The Hunger Games: Mockingjay - Part 2 (2015)

The Hunger Games: Mockingjay - Part 2 (2015)

The Hunger Games: Mockingjay - Part 2 (2015)

HDRip
http://nitroflare.com/view/276BDD572F57B8E/The.Hunger.Games.Mockingjay.Part.2.2015.HDRip.part1.rar
http://nitroflare.com/view/E0205CC8BE0ED9A/The.Hunger.Games.Mockingjay.Part.2.2015.HDRip.part2.rar
http://nitroflare.com/view/FBB0F84B24B1CA2/The.Hunger.Games.Mockingjay.Part.2.2015.HDRip.part3.rar
WEB-DL 720p
http://nitroflare.com/view/9BB46B14C53661C/The.Hunger.Games.Mockingjay.Part.2.2015.720p.WEB-DL.part1.rar
http://nitroflare.com/view/4E296317B225D12/The.Hunger.Games.Mockingjay.Part.2.2015.720p.WEB-DL.part2.rar
http://nitroflare.com/view/9D86C89E4B256C1/The.Hunger.Games.Mockingjay.Part.2.2015.720p.WEB-DL.part3.rar
http://nitroflare.com/view/0AF914BAD67F953/The.Hunger.Games.Mockingjay.Part.2.2015.720p.WEB-DL.part4.rar
http://nitroflare.com/view/BA6483FC78B56F0/The.Hunger.Games.Mockingjay.Part.2.2015.720p.WEB-DL.part5.rar
WEB-DL 1080p
http://nitroflare.com/view/C58CF89805AE91F/The.Hunger.Games.Mockingjay.Part.2.2015.1080p.WEB-DL.part1.rar
http://nitroflare.com/view/ABD9610F7BF4268/The.Hunger.Games.Mockingjay.Part.2.2015.1080p.WEB-DL.part2.rar
http://nitroflare.com/view/052825369D81C54/The.Hunger.Games.Mockingjay.Part.2.2015.1080p.WEB-DL.part3.rar
http://nitroflare.com/view/94D899FD69EC762/The.Hunger.Games.Mockingjay.Part.2.2015.1080p.WEB-DL.part4.rar
http://nitroflare.com/view/AD0273688D80543/The.Hunger.Games.Mockingjay.Part.2.2015.1080p.WEB-DL.part5.rar
HDRip 720p
http://nitroflare.com/view/B9A6357EFF5EF42/The.Hunger.Games.Mockingjay.Part.2.2015.720p.HDRiP.HEVC.x265.AC3-MAJESTiC.part1.rar
http://nitroflare.com/view/110E495F0EDABF3/The.Hunger.Games.Mockingjay.Part.2.2015.720p.HDRiP.HEVC.x265.AC3-MAJESTiC.part2.rar
http://nitroflare.com/view/D4425121E2AA70C/The.Hunger.Games.Mockingjay.Part.2.2015.720p.HDRiP.HEVC.x265.AC3-MAJESTiC.part3.rar
http://nitroflare.com/view/530F993022C00F9/The.Hunger.Games.Mockingjay.Part.2.2015.720p.HDRiP.HEVC.x265.AC3-MAJESTiC.part4.rar