The Limehouse Golem - Mistero Sul Tamigi (2016)

Posted By: JohnSmith
720p (HD) / BDRip IMDb
The Limehouse Golem - Mistero Sul Tamigi (2016)

The Limehouse Golem - Mistero Sul Tamigi / The Limehouse Golem (2016)
BDRip | MKV / AVC@1840 kb/s | 848x356 | 1h 48mn | 1.73 GB
Italian (dubbed): AC3, 448 kb/s (6 ch) | Subtitles: Italian (forced, full)
BDRip 720p | MKV / AVC@4250 kb/s | 1280x536 | 1h 48mn | 3.57 GB
Italian (dubbed): AC3, 448 kb/s (6 ch) | Subtitles: Italian (forced, full)
Genre: Horror | Thriller

Londra, 1880. Nel pericoloso quartiere di Limehouse, una serie di omicidi scuote la comunità. Mostruosi e spietati, i delitti sono per la stampa frutto del lavoro del Golem, una creatura del folklore. Quando il Golem colpisce ancora, la polizia decide di mettere a capo delle indagini l'esperto detective Kildare, un capro espiatorio da sacrificare nel momento in cui si presenterà una nuova vittima.




General
Unique ID : 225621397079218621120740862623659485703 (0xA9BD19B89821F2B88B1FED92F9966A07)
Complete name : A:\The.Limehouse.Golem.Mistero.sul.Tamigi.2016.ITA.BDRip.480p.CB01HD.mkv
Format : Matroska
Format version : Version 4 / Version 2
File size : 1.73 GiB
Duration : 1 h 48 min
Overall bit rate : 2 279 kb/s
Encoded date : UTC 2017-12-06 18:47:29
Writing application : mkvmerge v8.3.0 ('Over the Horizon') 64bit
Writing library : libebml v1.3.1 + libmatroska v1.4.2

Video
ID : 1
Format : AVC
Format/Info : Advanced Video Codec
Format profile : Main@L3
Format settings, CABAC : Yes
Format settings, ReFrames : 1 frame
Codec ID : V_MPEG4/ISO/AVC
Duration : 1 h 48 min
Bit rate : 1 838 kb/s
Width : 848 pixels
Height : 356 pixels
Display aspect ratio : 2.40:1
Frame rate mode : Constant
Frame rate : 23.976 (24000/1001) FPS
Color space : YUV
Chroma subsampling : 4:2:0
Bit depth : 8 bits
Scan type : Progressive
Bits/(Pixel*Frame) : 0.254
Stream size : 1.39 GiB (80%)
Writing library : x264 core 129
Encoding settings : cabac=1 / ref=1 / deblock=1:0:0 / analyse=0x1:0x131 / me=dia / subme=2 / psy=1 / psy_rd=1.00:0.00 / mixed_ref=0 / me_range=16 / chroma_me=1 / trellis=0 / 8x8dct=0 / cqm=0 / deadzone=21,11 / fast_pskip=1 / chroma_qp_offset=0 / threads=8 / lookahead_threads=1 / sliced_threads=0 / nr=0 / decimate=1 / interlaced=0 / bluray_compat=0 / constrained_intra=0 / bframes=0 / weightp=2 / keyint=250 / keyint_min=25 / scenecut=40 / intra_refresh=0 / rc_lookahead=40 / rc=abr / mbtree=1 / bitrate=1838 / ratetol=1.0 / qcomp=0.60 / qpmin=10 / qpmax=51 / qpstep=4 / ip_ratio=1.41 / aq=1:1.00
Language : English
Default : Yes
Forced : No

Audio
ID : 2
Format : AC-3
Format/Info : Audio Coding 3
Format settings, Endianness : Big
Codec ID : A_AC3
Duration : 1 h 48 min
Bit rate mode : Constant
Bit rate : 448 kb/s
Channel(s) : 6 channels
Channel positions : Front: L C R, Side: L R, LFE
Sampling rate : 48.0 kHz
Frame rate : 31.250 FPS (1536 spf)
Bit depth : 16 bits
Compression mode : Lossy
Stream size : 348 MiB (20%)
Title : WEBDL
Language : Italian
Service kind : Complete Main
Default : Yes
Forced : No

Text #1
ID : 3
Format : UTF-8
Codec ID : S_TEXT/UTF8
Codec ID/Info : UTF-8 Plain Text
Duration : 1 h 35 min
Bit rate : 2 b/s
Count of elements : 47
Stream size : 1.89 KiB (0%)
Title : Forced
Language : Italian
Default : Yes
Forced : No

Text #2
ID : 4
Format : UTF-8
Codec ID : S_TEXT/UTF8
Codec ID/Info : UTF-8 Plain Text
Duration : 1 h 42 min
Bit rate : 71 b/s
Count of elements : 1466
Stream size : 53.8 KiB (0%)
Language : Italian
Default : No
Forced : No





General
Unique ID : 186425814689162680064464968290450126173 (0x8C404E4EEA86CF6F9D1C2F115419B55D)
Complete name : A:\The.Limehouse.Golem.Mistero.sul.Tamigi.2016.ITA.BDRip.720p.mkv
Format : Matroska
Format version : Version 4 / Version 2
File size : 3.57 GiB
Duration : 1 h 48 min
Overall bit rate : 4 697 kb/s
Encoded date : UTC 2017-12-06 18:49:15
Writing application : mkvmerge v8.3.0 ('Over the Horizon') 64bit
Writing library : libebml v1.3.1 + libmatroska v1.4.2

Video
ID : 1
Format : AVC
Format/Info : Advanced Video Codec
Format profile : High@L4.1
Format settings, CABAC : Yes
Format settings, ReFrames : 5 frames
Codec ID : V_MPEG4/ISO/AVC
Duration : 1 h 48 min
Bit rate : 4 248 kb/s
Width : 1 280 pixels
Height : 536 pixels
Display aspect ratio : 2.40:1
Frame rate mode : Constant
Frame rate : 23.976 (24000/1001) FPS
Color space : YUV
Chroma subsampling : 4:2:0
Bit depth : 8 bits
Scan type : Progressive
Bits/(Pixel*Frame) : 0.258
Stream size : 3.22 GiB (90%)
Writing library : x264 core 152 r2851 ba24899
Encoding settings : cabac=1 / ref=5 / deblock=1:-3:-3 / analyse=0x3:0x113 / me=umh / subme=8 / psy=1 / psy_rd=1.00:0.00 / mixed_ref=1 / me_range=24 / chroma_me=1 / trellis=1 / 8x8dct=1 / cqm=0 / deadzone=21,11 / fast_pskip=1 / chroma_qp_offset=-2 / threads=17 / lookahead_threads=2 / sliced_threads=0 / nr=0 / decimate=1 / interlaced=0 / bluray_compat=0 / constrained_intra=0 / bframes=3 / b_pyramid=2 / b_adapt=2 / b_bias=0 / direct=3 / weightb=1 / open_gop=0 / weightp=2 / keyint=240 / keyint_min=24 / scenecut=40 / intra_refresh=0 / rc_lookahead=50 / rc=2pass / mbtree=1 / bitrate=4248 / ratetol=1.0 / qcomp=0.60 / qpmin=0 / qpmax=69 / qpstep=4 / cplxblur=20.0 / qblur=0.5 / ip_ratio=1.40 / aq=3:0.80
Default : Yes
Forced : No

Audio
ID : 2
Format : AC-3
Format/Info : Audio Coding 3
Format settings, Endianness : Big
Codec ID : A_AC3
Duration : 1 h 48 min
Bit rate mode : Constant
Bit rate : 448 kb/s
Channel(s) : 6 channels
Channel positions : Front: L C R, Side: L R, LFE
Sampling rate : 48.0 kHz
Frame rate : 31.250 FPS (1536 spf)
Bit depth : 16 bits
Compression mode : Lossy
Stream size : 348 MiB (10%)
Title : WEBDL
Language : Italian
Service kind : Complete Main
Default : Yes
Forced : No

Text #1
ID : 3
Format : UTF-8
Codec ID : S_TEXT/UTF8
Codec ID/Info : UTF-8 Plain Text
Duration : 1 h 35 min
Bit rate : 2 b/s
Count of elements : 47
Stream size : 1.89 KiB (0%)
Title : Forced
Language : Italian
Default : Yes
Forced : No

Text #2
ID : 4
Format : UTF-8
Codec ID : S_TEXT/UTF8
Codec ID/Info : UTF-8 Plain Text
Duration : 1 h 42 min
Bit rate : 71 b/s
Count of elements : 1466
Stream size : 53.8 KiB (0%)
Language : Italian
Default : No
Forced : No




Screenshots BDRip

The Limehouse Golem - Mistero Sul Tamigi (2016)

The Limehouse Golem - Mistero Sul Tamigi (2016)

The Limehouse Golem - Mistero Sul Tamigi (2016)


Screenshots BDRip 720p

The Limehouse Golem - Mistero Sul Tamigi (2016)

The Limehouse Golem - Mistero Sul Tamigi (2016)

The Limehouse Golem - Mistero Sul Tamigi (2016)