Movies4Men - The Panavia Tornado (2013)

Posted By: Tutorial
Movies4Men - The Panavia Tornado (2013)

Movies4Men - The Panavia Tornado (2013)
PDTV | 720 x 540 | .MKV/AVC @ 1092 Kbps | 55 min 34 s | 460 MB
Audio: English AAC 64.0 Kbps, 2 channels | Subs: None
Genre: Documentary

Charts the history and development of the Panavia Tornado fighter jet aircraft.

General
Unique ID : 186861124432424113273363552963995341164 (0x8C9424BC53781A9495F3F37E8A3F916C)
Complete name : The.Panavia.Tornado.mkv
Format : Matroska
Format version : Version 4 / Version 2
File size : 460 MiB
Duration : 55 min 34 s
Overall bit rate : 1 158 kb/s
Encoded date : UTC 2017-10-10 12:18:55
Writing application : mkvmerge v16.0.0 ('Protest') 64-bit
Writing library : libebml v1.3.5 + libmatroska v1.4.8

Video
ID : 1
Format : AVC
Format/Info : Advanced Video Codec
Format profile : Main@L3.1
Format settings, CABAC : Yes
Format settings, ReFrames : 4 frames
Codec ID : V_MPEG4/ISO/AVC
Duration : 55 min 34 s
Bit rate : 1 092 kb/s
Width : 720 pixels
Height : 540 pixels
Display aspect ratio : 4:3
Frame rate mode : Constant
Frame rate : 25.000 FPS
Color space : YUV
Chroma subsampling : 4:2:0
Bit depth : 8 bits
Scan type : Progressive
Bits/(Pixel*Frame) : 0.112
Stream size : 434 MiB (94%)
Writing library : x264 core 152 r2851 MVGroup
Encoding settings : cabac=1 / ref=3 / deblock=1:0:0 / analyse=0x1:0x111 / me=umh / subme=9 / psy=1 / psy_rd=1.00:0.00 / mixed_ref=1 / me_range=16 / chroma_me=1 / trellis=1 / 8x8dct=0 / cqm=0 / deadzone=21,11 / fast_pskip=0 / chroma_qp_offset=-2 / threads=3 / lookahead_threads=1 / sliced_threads=0 / nr=0 / decimate=1 / interlaced=0 / bluray_compat=0 / constrained_intra=0 / bframes=6 / b_pyramid=2 / b_adapt=2 / b_bias=0 / direct=1 / weightb=1 / open_gop=0 / weightp=2 / keyint=250 / keyint_min=25 / scenecut=40 / intra_refresh=0 / rc_lookahead=40 / rc=crf / mbtree=1 / crf=20.0 / qcomp=0.60 / qpmin=0 / qpmax=69 / qpstep=4 / ip_ratio=1.40 / aq=1:1.00
Language : English
Default : Yes
Forced : No

Audio
ID : 2
Format : AAC
Format/Info : Advanced Audio Codec
Format profile : HE-AAC / LC
Codec ID : A_AAC
Duration : 55 min 34 s
Bit rate : 64.0 kb/s
Channel(s) : 2 channels
Channel positions : Front: L R
Sampling rate : 48.0 kHz / 24.0 kHz
Frame rate : 23.438 FPS (1024 spf)
Compression mode : Lossy
Delay relative to video : 31 ms
Stream size : 25.4 MiB (6%)
Language : English
Default : Yes
Forced : No
Screenshots

Movies4Men - The Panavia Tornado (2013)

Movies4Men - The Panavia Tornado (2013)

Movies4Men - The Panavia Tornado (2013)

Welcome to my blog - daily update!

Movies4Men - The Panavia Tornado (2013)