The Pirates of Somalia (2017)

Posted By: JohnSmith
1080p (FullHD) / BDRip IMDb
The Pirates of Somalia (2017)

The Pirates of Somalia (2017)
BRRip | AVI / XviD@1300 kb/s | 720x304 | 1h 57mn | 1.39 GB | English: AC3, 384 kb/s (6 ch)
BDRip 720p | MKV / AVC@3700 kb/s | 1280x534 | 1h 57mn | 4.37 GB | English: DTS, 1509 kb/s (6 ch)
BDRip 1080p | MKV / AVC@8888 kb/s | 1920x800 | 1h 57mn | 10.3 GB | English: DTS-HD MA, 3645 kb/s (6 ch)
Genre: Biography | Drama

In 2008, rookie journalist Jay Bahadur forms a half-baked plan to embed himself among the pirates of Somalia. He ultimately succeeds in providing the first close-up look into who these men are, how they live, and the forces that drive them.




General
Complete name : D:\Downloads\The.Pirates.of.Somalia.2017.BRRip.XviD.AC3-EVO\The.Pirates.of.Somalia.2017.BRRip.XviD.AC3-EVO.avi
Format : AVI
Format/Info : Audio Video Interleave
File size : 1.39 GiB
Duration : 1 h 57 min
Overall bit rate : 1 690 kb/s
Writing library : VirtualDub build 32593/release

Video
ID : 0
Format : MPEG-4 Visual
Format profile : Advanced Simple@L5
Format settings, BVOP : 2
Format settings, QPel : No
Format settings, GMC : No warppoints
Format settings, Matrix : Default (H.263)
Muxing mode : Packed bitstream
Codec ID : XVID
Codec ID/Hint : XviD
Duration : 1 h 57 min
Bit rate : 1 297 kb/s
Width : 720 pixels
Height : 304 pixels
Display aspect ratio : 2.35:1
Frame rate : 23.976 (24000/1001) FPS
Color space : YUV
Chroma subsampling : 4:2:0
Bit depth : 8 bits
Scan type : Progressive
Compression mode : Lossy
Bits/(Pixel*Frame) : 0.247
Stream size : 1.07 GiB (77%)
Writing library : XviD 66

Audio
ID : 1
Format : AC-3
Format/Info : Audio Coding 3
Format settings, Endianness : Big
Codec ID : 2000
Duration : 1 h 57 min
Bit rate mode : Constant
Bit rate : 384 kb/s
Channel(s) : 6 channels
Channel positions : Front: L C R, Side: L R, LFE
Sampling rate : 48.0 kHz
Frame rate : 31.250 FPS (1536 spf)
Bit depth : 16 bits
Compression mode : Lossy
Stream size : 323 MiB (23%)
Alignment : Aligned on interleaves
Interleave, duration : 42 ms (1.00 video frame)
Interleave, preload duratio : 512 ms
Service kind : Complete Main





General
Unique ID : 248474197448058048747708868697764425280 (0xBAEE63C52AC29A479756B15A13706E40)
Complete name : D:\Downloads\The.Pirates.of.Somalia.2017.BluRay.720p.x264.DTS-HDChina\The.Pirates.of.Somalia.2017.BluRay.720p.x264.DTS-HDChina.mkv
Format : Matroska
Format version : Version 2
File size : 4.37 GiB
Duration : 1 h 57 min
Overall bit rate : 5 316 kb/s
Movie name : The.Pirates.of.Somalia.2017.BluRay.720p.x264.DTS-HDChina
Encoded date : UTC 2018-01-10 11:05:23
Writing application : mkvmerge v5.8.0 ('No Sleep / Pillow') built on Sep 2 2012 15:37:04
Writing library : libebml v1.2.3 + libmatroska v1.3.0

Video
ID : 1
Format : AVC
Format/Info : Advanced Video Codec
Format profile : High@L4.1
Format settings, CABAC : Yes
Format settings, ReFrames : 12 frames
Codec ID : V_MPEG4/ISO/AVC
Duration : 1 h 57 min
Bit rate : 3 702 kb/s
Width : 1 280 pixels
Height : 534 pixels
Display aspect ratio : 2.40:1
Frame rate mode : Constant
Frame rate : 23.976 (24000/1001) FPS
Color space : YUV
Chroma subsampling : 4:2:0
Bit depth : 8 bits
Scan type : Progressive
Bits/(Pixel*Frame) : 0.226
Stream size : 3.04 GiB (70%)
Writing library : x264 core 148 r2744kMod b97ae06
Encoding settings : cabac=1 / ref=12 / deblock=1:-3:-3 / analyse=0x3:0x133 / me=umh / subme=11 / psy=1 / fade_compensate=0.00 / psy_rd=1.05:0.00 / mixed_ref=1 / me_range=48 / chroma_me=1 / trellis=2 / 8x8dct=1 / cqm=0 / deadzone=21,11 / fast_pskip=0 / chroma_qp_offset=-2 / threads=12 / lookahead_threads=2 / sliced_threads=0 / nr=0 / decimate=0 / interlaced=0 / bluray_compat=0 / constrained_intra=0 / bframes=8 / b_pyramid=2 / b_adapt=2 / b_bias=0 / direct=3 / weightb=1 / open_gop=0 / weightp=2 / keyint=240 / keyint_min=2 / scenecut=40 / intra_refresh=0 / rc_lookahead=60 / rc=crf / mbtree=0 / crf=17.0000 / qcomp=0.70 / qpmin=0 / qpmax=69 / qpstep=4 / vbv_maxrate=50000 / vbv_bufsize=30000 / crf_max=0.0 / nal_hrd=none / filler=0 / ip_ratio=1.30 / pb_ratio=1.20 / aq=3:0.80
Default : Yes
Forced : No

Audio
ID : 2
Format : DTS
Format/Info : Digital Theater Systems
Mode : 16
Format settings, Endianness : Big
Codec ID : A_DTS
Duration : 1 h 57 min
Bit rate mode : Constant
Bit rate : 1 509 kb/s
Channel(s) : 6 channels
Channel positions : Front: L C R, Side: L R, LFE
Sampling rate : 48.0 kHz
Frame rate : 93.750 FPS (512 spf)
Bit depth : 24 bits
Compression mode : Lossy
Stream size : 1.24 GiB (28%)
Language : English
Default : Yes
Forced : No





General
Unique ID : 183478134880557263670873689297534971765 (0x8A089A791F4A63FD8367945F9AB9EF75)
Complete name : D:\Downloads\The.Pirates.of.Somalia.2017.BluRay.1080p.x264.DTS-HD.MA.5.1-HDChina\The.Pirates.of.Somalia.2017.BluRay.1080p.x264.DTS-HD.MA.5.1-HDChina.mkv
Format : Matroska
Format version : Version 2
File size : 10.3 GiB
Duration : 1 h 57 min
Overall bit rate : 12.5 Mb/s
Movie name : The.Pirates.of.Somalia.2017.BluRay.1080p.x264.DTS-HD.MA.5.1-HDChina
Encoded date : UTC 2018-01-10 11:01:42
Writing application : mkvmerge v5.8.0 ('No Sleep / Pillow') built on Sep 2 2012 15:37:04
Writing library : libebml v1.2.3 + libmatroska v1.3.0

Video
ID : 1
Format : AVC
Format/Info : Advanced Video Codec
Format profile : High@L4.1
Format settings, CABAC : Yes
Format settings, ReFrames : 5 frames
Codec ID : V_MPEG4/ISO/AVC
Duration : 1 h 57 min
Width : 1 920 pixels
Height : 800 pixels
Display aspect ratio : 2.40:1
Frame rate mode : Constant
Frame rate : 23.976 (24000/1001) FPS
Color space : YUV
Chroma subsampling : 4:2:0
Bit depth : 8 bits
Scan type : Progressive
Writing library : x264 core 152 r2851kMod ba24899
Encoding settings : cabac=1 / ref=5 / deblock=1:-3:-3 / analyse=0x3:0x133 / me=umh / subme=11 / psy=1 / fade_compensate=0.00 / psy_rd=1.05:0.00 / mixed_ref=1 / me_range=48 / chroma_me=1 / trellis=2 / 8x8dct=1 / cqm=0 / deadzone=21,11 / fast_pskip=0 / chroma_qp_offset=-2 / threads=24 / lookahead_threads=4 / sliced_threads=0 / nr=0 / decimate=0 / interlaced=0 / bluray_compat=0 / constrained_intra=0 / bframes=8 / b_pyramid=2 / b_adapt=2 / b_bias=0 / direct=3 / weightb=1 / open_gop=0 / weightp=2 / keyint=240 / keyint_min=2 / scenecut=40 / intra_refresh=0 / rc=crf / mbtree=0 / crf=17.5000 / qcomp=0.70 / qpmin=0 / qpmax=69 / qpstep=4 / ip_ratio=1.30 / pb_ratio=1.20 / aq=3:0.80
Default : Yes
Forced : No

Audio
ID : 2
Format : DTS
Format/Info : Digital Theater Systems
Format profile : MA / Core
Mode : 16
Format settings, Endianness : Big
Codec ID : A_DTS
Duration : 1 h 57 min
Bit rate mode : Variable / Constant
Bit rate : Unknown / 1 509 kb/s
Channel(s) : 6 channels
Channel positions : Front: L C R, Side: L R, LFE
Sampling rate : 48.0 kHz
Frame rate : 93.750 FPS (512 spf)
Bit depth : 24 bits
Compression mode : Lossless / Lossy
Language : English
Default : Yes
Forced : No




Screenshots BRRip

The Pirates of Somalia (2017)

The Pirates of Somalia (2017)

The Pirates of Somalia (2017)


Screenshots BDRip 720p

The Pirates of Somalia (2017)

The Pirates of Somalia (2017)

The Pirates of Somalia (2017)


Screenshots BDRip 1080p

The Pirates of Somalia (2017)

The Pirates of Somalia (2017)

The Pirates of Somalia (2017)