The Prodigy: World's on Fire (2011)

Posted By: Tutorial
1080p (FullHD) / BluRay IMDb
The Prodigy: World's on Fire (2011)

The Prodigy: World's on Fire (2011)
1080p BluRay | 1920 x 808 | .MKV/AVC @ 14.9 Mbps | 1h 9mn | English AC-3 640 kbps, 6 channels | 7.49 GB
Genre: Documentary

Recorded before 65,000 fans, this is the debut live film documenting The Prodigy's biggest concert to date. Directed by award winning director Paul Dugdale, the full length feature was devised with close direction from the band throughout, and features a short film of previously unseen footage taken on tour in Brazil.

General
Unique ID : 235430945902437543645956229581871614380 (0xB11E59D1A04D021CACB4F384808189AC)
Complete name : The.Prodigy.Worlds.On.Fire.2011.mkv
Format : Matroska
Format version : Version 4 / Version 2
File size : 7.49 GiB
Duration : 1 h 9 min
Overall bit rate : 15.5 Mb/s
Movie name : The.Prodigy.Worlds.On.Fire.2011.1080p.BluRay.x264.DD5.1-FGT
Encoded date : UTC 2017-04-08 12:16:23
Writing application : mkvmerge v9.9.0 ('Pick Up') 64bit
Writing library : libebml v1.3.4 + libmatroska v1.4.5
Cover : Yes
Attachments : small_cover.jpg / small_cover_land.jpg / cover.jpg / cover_land.jpg

Video
ID : 1
Format : AVC
Format/Info : Advanced Video Codec
Format profile : High@L4.1
Format settings, CABAC : Yes
Format settings, ReFrames : 4 frames
Codec ID : V_MPEG4/ISO/AVC
Duration : 1 h 9 min
Bit rate : 14.9 Mb/s
Width : 1 920 pixels
Height : 808 pixels
Display aspect ratio : 2.40:1
Frame rate mode : Constant
Frame rate : 29.970 (30000/1001) FPS
Color space : YUV
Chroma subsampling : 4:2:0
Bit depth : 8 bits
Scan type : Progressive
Bits/(Pixel*Frame) : 0.320
Stream size : 7.04 GiB (94%)
Title : The.Prodigy.Worlds.On.Fire.2011.1080p.BluRay.x264.DD5.1-FGT
Writing library : x264 core 115 r2008 4c552d8
Encoding settings : cabac=1 / ref=4 / deblock=1:-3:-3 / analyse=0x3:0x113 / me=umh / subme=10 / psy=1 / psy_rd=1.38:0.00 / mixed_ref=1 / me_range=16 / chroma_me=1 / trellis=2 / 8x8dct=1 / cqm=0 / deadzone=21,11 / fast_pskip=0 / chroma_qp_offset=1 / threads=3 / sliced_threads=0 / nr=0 / decimate=1 / interlaced=0 / bluray_compat=0 / constrained_intra=0 / bframes=6 / b_pyramid=0 / b_adapt=2 / b_bias=0 / direct=3 / weightb=1 / open_gop=0 / weightp=2 / keyint=250 / keyint_min=25 / scenecut=40 / intra_refresh=0 / rc_lookahead=40 / rc=2pass / mbtree=1 / bitrate=14899 / ratetol=1.0 / qcomp=0.60 / qpmin=10 / qpmax=51 / qpstep=4 / cplxblur=20.0 / qblur=0.5 / ip_ratio=1.40 / aq=1:0.80
Language : English
Default : Yes
Forced : No

Audio
ID : 2
Format : AC-3
Format/Info : Audio Coding 3
Format settings, Endianness : Big
Codec ID : A_AC3
Duration : 1 h 9 min
Bit rate mode : Constant
Bit rate : 640 kb/s
Channel(s) : 6 channels
Channel positions : Front: L C R, Side: L R, LFE
Sampling rate : 48.0 kHz
Frame rate : 31.250 FPS (1536 spf)
Bit depth : 16 bits
Compression mode : Lossy
Stream size : 316 MiB (4%)
Title : The.Prodigy.Worlds.On.Fire.2011.1080p.BluRay.x264.DD5.1-FGT
Language : English
Service kind : Complete Main
Default : Yes
Forced : No

Menu
00:00:00.000 : :Intro
00:01:39.433 : :Breathe
00:06:22.716 : :Omen
00:10:44.677 : :Colours
00:14:52.058 : :Thunder
00:17:14.433 : :Warriors Dance
00:22:13.299 : :Firestarter
00:27:00.018 : :Run With The Wolves
00:31:43.869 : :Weather Experience
00:35:35.533 : :Voodoo People
00:39:29.734 : :Omen Reprise
00:40:31.296 : :Invaders Must Die
00:44:17.655 : :Smack My Bitch Up
00:50:05.169 : :Take Me To The Hospital
00:55:06.370 : :Everybody In The Place
00:57:43.994 : :Their Law
01:03:41.251 : :Out Of Space
Screenshots

The Prodigy: World's on Fire (2011)

The Prodigy: World's on Fire (2011)


The Prodigy: World's on Fire (2011)