Tags
Language
Tags

Serbuan maut 2: Berandal / The Raid 2 (2014)

Posted By: Without
1080p (FullHD) / BDRip IMDb
Serbuan maut 2: Berandal / The Raid 2 (2014)

Serbuan maut 2: Berandal / The Raid 2 (2014)
BDRip 1080p | MKV | 2 h 30 min | 17.0 GB | 1920x800 | AVC@13.0 Mb/s
Bahasa Indonesia, English DTS@1509 kb/s, 6 ch | English AC3@192 kb/s, 2 ch (Commentary)
Subs: English, Albanian, العربية, Português, Български, Hrvatski, Čeština, Dansk, Nederlands
Eesti keel, Ελληνικά, עברית, 日本語, Bahasa Indonesia, Italiano, Norsk, Polski, Persian, Română
Serbian, Español, Svenska, ภาษาไทย, Türkçe, tiếng Việt
Genre: Action, Crime, Thriller

Only a short time after the first raid, Rama goes undercover with the thugs of Jakarta and plans to bring down the syndicate and uncover the corruption within his police force.



General
The.Raid.2.2014.INDONESIAN.1080p.BluRay.x264.DTS-DON.mkv
Format : Matroska
Format version : Version 4 / Version 2
File size : 17.0 GB
Duration : 2 h 30 min
Overall bit rate : 16.2 Mb/s
Encoded date : UTC 2020-11-28 18:52:47
Writing application : mkvmerge v49.0.0 ('Sick Of Losing Soulmates') 64-bit
Writing library : libebml v1.4.0 + libmatroska v1.6.1
Cover : Yes
Attachments : small_cover.jpg / small_cover_land.jpg / cover.jpg / cover_land.jpg

Video
ID : 1
Format : AVC
Format/Info : Advanced Video Codec
Format profile : High@L4.1
Format settings, CABAC : Yes
Format settings, ReFrames : 5 frames
Codec ID : V_MPEG4/ISO/AVC
Duration : 2 h 30 min
Bit rate : 13.0 Mb/s
Width : 1920 pixels
Height : 800 pixels
Display aspect ratio : 2.40:1
Frame rate mode : Constant
Frame rate : 23.976 (24000/1001) FPS
Color space : YUV
Chroma subsampling : 4:2:0
Bit depth : 8 bits
Scan type : Progressive
Bits/(Pixel*Frame) : 0.353
Stream size : 13.6 GB (80%)
Title : 1080p x264 L4.1 @ 12987 Kbps
Writing library : x264 core 142 r2431+42 c69a006 tMod [8-bit@all X86_64]
Encoding settings : cabac=1 / ref=5 / deblock=1:-3:-3 / analyse=0x3:0x133 / me=tesa / subme=10 / psy=1 / fade_compensate=0.00 / psy_rd=1.00:0.00 / mixed_ref=1 / me_range=25 / chroma_me=1 / trellis=2 / 8x8dct=1 / cqm=0 / deadzone=21,11 / fast_pskip=0 / chroma_qp_offset=-2 / threads=6 / lookahead_threads=1 / sliced_threads=0 / nr=0 / decimate=0 / interlaced=0 / bluray_compat=0 / constrained_intra=0 / fgo=0 / bframes=5 / b_pyramid=2 / b_adapt=2 / b_bias=0 / direct=3 / weightb=1 / open_gop=0 / weightp=2 / keyint=250 / keyint_min=23 / scenecut=40 / intra_refresh=0 / rc=crf / mbtree=0 / crf=16.0000 / qcomp=0.70 / qpmin=0:0:0 / qpmax=69:69:69 / qpstep=4 / ip_ratio=1.20 / pb_ratio=1.10 / aq=4:0.80 / aq-sensitivity=10.00 / aq-factor=1.00:1.00:1.00 / aq2=0 / aq3=0
Language : English
Default : Yes
Forced : No
Color range : Limited
Color primaries : BT.709
Transfer characteristics : BT.709
Matrix coefficients : BT.709

Audio #1
ID : 2
Format : DTS
Format/Info : Digital Theater Systems
Mode : 16
Format settings, Endianness : Big
Codec ID : A_DTS
Duration : 2 h 30 min
Bit rate mode : Constant
Bit rate : 1509 kb/s
Channel(s) : 6 channels
Channel positions : Front: L C R, Side: L R, LFE
Sampling rate : 48.0 kHz
Frame rate : 93.750 FPS (512 spf)
Bit depth : 24 bits
Compression mode : Lossy
Stream size : 1.59 GB (9%)
Title : DTS Core 5.1 @ 1509 Kbps
Language : Indonesian
Default : Yes
Forced : No

Audio #2
ID : 3
Format : DTS
Format/Info : Digital Theater Systems
Mode : 16
Format settings, Endianness : Big
Codec ID : A_DTS
Duration : 2 h 30 min
Bit rate mode : Constant
Bit rate : 1509 kb/s
Channel(s) : 6 channels
Channel positions : Front: L C R, Side: L R, LFE
Sampling rate : 48.0 kHz
Frame rate : 93.750 FPS (512 spf)
Bit depth : 16 bits
Compression mode : Lossy
Stream size : 1.59 GB (9%)
Language : English
Default : No
Forced : No

Audio #3
ID : 4
Format : AC-3
Format/Info : Audio Coding 3
Mode extension : CM (complete main)
Format settings, Endianness : Big
Codec ID : A_AC3
Duration : 2 h 30 min
Bit rate mode : Constant
Bit rate : 192 kb/s
Channel(s) : 2 channels
Channel positions : Front: L R
Sampling rate : 48.0 kHz
Frame rate : 31.250 FPS (1536 spf)
Bit depth : 16 bits
Compression mode : Lossy
Stream size : 207 MB (1%)
Title : Commentary AC3 2.0 @ 192 Kbps
Language : English
Default : No
Forced : No

Text #1
ID : 5
Format : UTF-8
Codec ID : S_TEXT/UTF8
Codec ID/Info : UTF-8 Plain Text
Duration : 2 h 24 min
Bit rate : 29 b/s
Count of elements : 872
Stream size : 31.6 KiB (0%)
Language : Albanian
Default : No
Forced : No

Text #2
ID : 6
Format : UTF-8
Codec ID : S_TEXT/UTF8
Codec ID/Info : UTF-8 Plain Text
Duration : 2 h 23 min
Bit rate : 38 b/s
Count of elements : 974
Stream size : 40.9 KiB (0%)
Language : Arabic
Default : No
Forced : No

Text #3
ID : 7
Format : UTF-8
Codec ID : S_TEXT/UTF8
Codec ID/Info : UTF-8 Plain Text
Duration : 2 h 23 min
Bit rate : 29 b/s
Count of elements : 927
Stream size : 31.3 KiB (0%)
Title : Brazilian
Language : Portuguese
Default : No
Forced : No

Text #4
ID : 8
Format : UTF-8
Codec ID : S_TEXT/UTF8
Codec ID/Info : UTF-8 Plain Text
Duration : 2 h 23 min
Bit rate : 48 b/s
Count of elements : 922
Stream size : 51.6 KiB (0%)
Language : Bulgarian
Default : No
Forced : No

Text #5
ID : 9
Format : UTF-8
Codec ID : S_TEXT/UTF8
Codec ID/Info : UTF-8 Plain Text
Duration : 2 h 23 min
Bit rate : 29 b/s
Count of elements : 920
Stream size : 30.8 KiB (0%)
Language : Croatian
Default : No
Forced : No

Text #6
ID : 10
Format : UTF-8
Codec ID : S_TEXT/UTF8
Codec ID/Info : UTF-8 Plain Text
Duration : 2 h 23 min
Bit rate : 28 b/s
Count of elements : 972
Stream size : 30.1 KiB (0%)
Language : Czech
Default : No
Forced : No

Text #7
ID : 11
Format : UTF-8
Codec ID : S_TEXT/UTF8
Codec ID/Info : UTF-8 Plain Text
Duration : 2 h 23 min
Bit rate : 28 b/s
Count of elements : 774
Stream size : 29.6 KiB (0%)
Language : Danish
Default : No
Forced : No

Text #8
ID : 12
Format : UTF-8
Codec ID : S_TEXT/UTF8
Codec ID/Info : UTF-8 Plain Text
Duration : 2 h 23 min
Bit rate : 29 b/s
Count of elements : 868
Stream size : 31.4 KiB (0%)
Language : Dutch
Default : No
Forced : No

Text #9
ID : 13
Format : UTF-8
Codec ID : S_TEXT/UTF8
Codec ID/Info : UTF-8 Plain Text
Duration : 2 h 23 min
Bit rate : 28 b/s
Count of elements : 961
Stream size : 29.9 KiB (0%)
Language : English
Default : Yes
Forced : No

Text #10
ID : 14
Format : UTF-8
Codec ID : S_TEXT/UTF8
Codec ID/Info : UTF-8 Plain Text
Duration : 2 h 27 min
Bit rate : 31 b/s
Count of elements : 1217
Stream size : 34.2 KiB (0%)
Title : SDH
Language : English
Default : No
Forced : No

Text #11
ID : 15
Format : UTF-8
Codec ID : S_TEXT/UTF8
Codec ID/Info : UTF-8 Plain Text
Duration : 2 h 25 min
Bit rate : 134 b/s
Count of elements : 2611
Stream size : 143 KiB (0%)
Title : Commentary
Language : English
Default : No
Forced : No

Text #12
ID : 16
Format : UTF-8
Codec ID : S_TEXT/UTF8
Codec ID/Info : UTF-8 Plain Text
Duration : 2 h 23 min
Bit rate : 28 b/s
Count of elements : 794
Stream size : 30.3 KiB (0%)
Language : Estonian
Default : No
Forced : No

Text #13
ID : 17
Format : UTF-8
Codec ID : S_TEXT/UTF8
Codec ID/Info : UTF-8 Plain Text
Duration : 2 h 23 min
Bit rate : 59 b/s
Count of elements : 1067
Stream size : 62.5 KiB (0%)
Language : Greek
Default : No
Forced : No

Text #14
ID : 18
Format : UTF-8
Codec ID : S_TEXT/UTF8
Codec ID/Info : UTF-8 Plain Text
Duration : 2 h 23 min
Bit rate : 41 b/s
Count of elements : 983
Stream size : 43.3 KiB (0%)
Language : Hebrew
Default : No
Forced : No

Text #15
ID : 19
Format : UTF-8
Codec ID : S_TEXT/UTF8
Codec ID/Info : UTF-8 Plain Text
Duration : 2 h 23 min
Bit rate : 28 b/s
Count of elements : 985
Stream size : 30.2 KiB (0%)
Language : Indonesian
Default : No
Forced : No

Text #16
ID : 20
Format : UTF-8
Codec ID : S_TEXT/UTF8
Codec ID/Info : UTF-8 Plain Text
Duration : 2 h 23 min
Bit rate : 29 b/s
Count of elements : 1022
Stream size : 31.0 KiB (0%)
Language : Italian
Default : No
Forced : No

Text #17
ID : 21
Format : UTF-8
Codec ID : S_TEXT/UTF8
Codec ID/Info : UTF-8 Plain Text
Duration : 2 h 23 min
Bit rate : 43 b/s
Count of elements : 975
Stream size : 45.8 KiB (0%)
Language : Japanese
Default : No
Forced : No

Text #18
ID : 22
Format : UTF-8
Codec ID : S_TEXT/UTF8
Codec ID/Info : UTF-8 Plain Text
Duration : 2 h 23 min
Bit rate : 28 b/s
Count of elements : 774
Stream size : 29.6 KiB (0%)
Language : Norwegian
Default : No
Forced : No

Text #19
ID : 23
Format : UTF-8
Codec ID : S_TEXT/UTF8
Codec ID/Info : UTF-8 Plain Text
Duration : 2 h 23 min
Bit rate : 49 b/s
Count of elements : 986
Stream size : 51.7 KiB (0%)
Language : Persian
Default : No
Forced : No

Text #20
ID : 24
Format : UTF-8
Codec ID : S_TEXT/UTF8
Codec ID/Info : UTF-8 Plain Text
Duration : 2 h 23 min
Bit rate : 30 b/s
Count of elements : 972
Stream size : 31.6 KiB (0%)
Language : Polish
Default : No
Forced : No

Text #21
ID : 25
Format : UTF-8
Codec ID : S_TEXT/UTF8
Codec ID/Info : UTF-8 Plain Text
Duration : 2 h 23 min
Bit rate : 30 b/s
Count of elements : 1019
Stream size : 32.3 KiB (0%)
Language : Portuguese
Default : No
Forced : No

Text #22
ID : 26
Format : UTF-8
Codec ID : S_TEXT/UTF8
Codec ID/Info : UTF-8 Plain Text
Duration : 2 h 23 min
Bit rate : 31 b/s
Count of elements : 959
Stream size : 33.4 KiB (0%)
Language : Romanian
Default : No
Forced : No

Text #23
ID : 27
Format : UTF-8
Codec ID : S_TEXT/UTF8
Codec ID/Info : UTF-8 Plain Text
Duration : 2 h 23 min
Bit rate : 28 b/s
Count of elements : 921
Stream size : 30.4 KiB (0%)
Language : Serbian
Default : No
Forced : No

Text #24
ID : 28
Format : UTF-8
Codec ID : S_TEXT/UTF8
Codec ID/Info : UTF-8 Plain Text
Duration : 2 h 23 min
Bit rate : 30 b/s
Count of elements : 1045
Stream size : 31.8 KiB (0%)
Language : Spanish
Default : No
Forced : No

Text #25
ID : 29
Format : UTF-8
Codec ID : S_TEXT/UTF8
Codec ID/Info : UTF-8 Plain Text
Duration : 2 h 23 min
Bit rate : 25 b/s
Count of elements : 720
Stream size : 26.9 KiB (0%)
Language : Swedish
Default : No
Forced : No

Text #26
ID : 30
Format : UTF-8
Codec ID : S_TEXT/UTF8
Codec ID/Info : UTF-8 Plain Text
Duration : 2 h 26 min
Bit rate : 75 b/s
Count of elements : 982
Stream size : 81.3 KiB (0%)
Language : Thai
Default : No
Forced : No

Text #27
ID : 31
Format : UTF-8
Codec ID : S_TEXT/UTF8
Codec ID/Info : UTF-8 Plain Text
Duration : 2 h 23 min
Bit rate : 30 b/s
Count of elements : 955
Stream size : 31.9 KiB (0%)
Language : Turkish
Default : No
Forced : No

Text #28
ID : 32
Format : UTF-8
Codec ID : S_TEXT/UTF8
Codec ID/Info : UTF-8 Plain Text
Duration : 2 h 25 min
Bit rate : 34 b/s
Count of elements : 972
Stream size : 36.3 KiB (0%)
Language : Vietnamese
Default : No
Forced : No

Menu
00:00:00.000 : en:Chapter 01
00:08:02.315 : en:Chapter 02
00:14:03.217 : en:Chapter 03
00:21:08.893 : en:Chapter 04
00:31:45.487 : en:Chapter 05
00:42:22.123 : en:Chapter 06
00:50:55.177 : en:Chapter 07
01:01:58.423 : en:Chapter 08
01:11:49.764 : en:Chapter 09
01:24:47.165 : en:Chapter 10
01:36:31.995 : en:Chapter 11
01:44:18.752 : en:Chapter 12
01:48:31.714 : en:Chapter 13
01:57:20.283 : en:Chapter 14
02:05:59.093 : en:Chapter 15
02:20:02.894 : en:Chapter 16



BDRip 1080p Screenshots

Serbuan maut 2: Berandal / The Raid 2 (2014)

Serbuan maut 2: Berandal / The Raid 2 (2014)

Serbuan maut 2: Berandal / The Raid 2 (2014)


Come Visit My Blog (•‿•)