The Rivers Of The Central Urals (2013)

Posted By: notbanned
The Rivers Of The Central Urals (2013)

The Rivers Of The Central Urals (2013)
HDTV | 1280x720 | .MKV/AVC @ 4050 Kbps | 23mn 29s | 727 MiB
Audio: English MP2 192 kbps, 2 channels | Subs: None
Genre: Documentary

In Ancient Rus’ rivers were referred to as “God’s roads” and along their banks settlements and cities bubbled with life. During the summer, river currents served as highways for many boats and merchant caravans while in the winter the rivers’ frozen waters provided a track for sledges. Rivers also served as a stimulant in the development of new lands. Russians travelled to both the Ural Mountains and the lands of Siberia by water as back then rivers were used as the main route of travel. Hundreds of years have passed since this time and nowadays masses of tourists follow the paths that traders and travellers took before them. On their journeys they hope to catch a glimpse of the Ural rivers, which have played witness to the magnificent geological transformations that have taken place here over time. Traces of the different periods can easily be seen on their steep banks, just like on stone tablets, and one simply needs to learn how to distinguish them.


General
Unique ID : 233005656180704097380026919519321522903 (0xAF4B41CDB382F960A9E39B22B5BF02D7)
Complete name : The.Rivers.Of.The.Central.Urals.mkv
Format : Matroska
Format version : Version 4 / Version 2
File size : 727 MiB
Duration : 23mn 29s
Overall bit rate : 4 328 Kbps

Video
ID : 1
Format : AVC
Format/Info : Advanced Video Codec
Format profile : High@L4.1
Format settings, CABAC : Yes
Format settings, ReFrames : 5 frames
Codec ID : V_MPEG4/ISO/AVC
Duration : 23mn 29s
Bit rate : 4 050 Kbps
Width : 1 280 pixels
Height : 720 pixels
Display aspect ratio : 16:9
Frame rate mode : Constant
Frame rate : 25.000 fps
Color space : YUV
Chroma subsampling : 4:2:0
Bit depth : 8 bits
Scan type : Progressive
Bits/(Pixel*Frame) : 0.176
Stream size : 680 MiB (94%)
Writing library : x264 core 148 r2692 64f4e24
Encoding settings : cabac=1 / ref=5 / deblock=1:-2:-2 / analyse=0x3:0x113 / me=umh / subme=8 / psy=1 / psy_rd=1.00:0.00 / mixed_ref=1 / me_range=16 / chroma_me=1 / trellis=1 / 8x8dct=1 / cqm=0 / deadzone=21,11 / fast_pskip=1 / chroma_qp_offset=-2 / threads=12 / lookahead_threads=2 / sliced_threads=0 / nr=0 / decimate=1 / interlaced=0 / bluray_compat=0 / constrained_intra=0 / bframes=3 / b_pyramid=2 / b_adapt=2 / b_bias=0 / direct=3 / weightb=1 / open_gop=0 / weightp=2 / keyint=250 / keyint_min=25 / scenecut=40 / intra_refresh=0 / rc_lookahead=50 / rc=crf / mbtree=1 / crf=20.0 / qcomp=0.60 / qpmin=0 / qpmax=69 / qpstep=4 / ip_ratio=1.40 / aq=1:1.00
Language : English
Default : Yes
Forced : No
DURATION : 00:23:29.400000000
NUMBER_OF_FRAMES : 35235
NUMBER_OF_BYTES : 728349609
_STATISTICS_WRITING_APP : mkvmerge v9.1.0 ('Little Earthquakes') 64bit
_STATISTICS_WRITING_DATE_UTC : 2016-05-06 17:09:46
_STATISTICS_TAGS : BPS DURATION NUMBER_OF_FRAMES NUMBER_OF_BYTES

Audio
ID : 2
Format : MPEG Audio
Format version : Version 1
Format profile : Layer 2
Codec ID : A_MPEG/L2
Codec ID/Hint : MP2
Duration : 23mn 29s
Bit rate mode : Constant
Bit rate : 192 Kbps
Channel(s) : 2 channels
Sampling rate : 48.0 KHz
Compression mode : Lossy
Stream size : 32.3 MiB (4%)
Default : Yes
Forced : No


Screenshots:

The Rivers Of The Central Urals (2013)

The Rivers Of The Central Urals (2013)

The Rivers Of The Central Urals (2013)

The Rivers Of The Central Urals (2013)