The Seven-Ups (1973) [Remastered]

Posted By: Without
1080p (FullHD) / BDRip IMDb
The Seven-Ups (1973) [Remastered]

The Seven-Ups (1973)
BRRip | AVI | 720x388 | XviD@1584 kb/s | English MP3@192 kb/s
Subs: English | 2 channels | 1 h 43 min | 1.29 GB
BDRip 720p | MKV | 1280x688 | AVC@7575 kb/s | English DTS@1509 kb/s
Subs: English | 2 channels | 1 h 43 min | 6.55 GB
BDRip 1080p | MKV | 1920x1040 | AVC@13.6 Mb/s | English DTS@1509 kb/s
Subs: English | 2 channels | 1 h 43 min | 10.9 GB
Genre: Action, Crime, Drama

A tough detective who is part of an elite New York City unit is trying to find out who killed his partner, but uncovers a plot to kidnap mobsters for money.



General
The.Seven-Ups.1973.REMASTERED.BRRip.XviD.MP3-XVID.avi
Format : AVI
Format/Info : Audio Video Interleave
Format profile : OpenDML
File size : 1.29 GiB
Duration : 1 h 43 min
Overall bit rate : 1 791 kb/s
Writing application : Lavf57.83.100

Video
ID : 0
Format : MPEG-4 Visual
Format profile : Simple@L5
Format settings, BVOP : No
Format settings, QPel : No
Format settings, GMC : No warppoints
Format settings, Matrix : Default (H.263)
Codec ID : XVID
Codec ID/Hint : XviD
Duration : 1 h 43 min
Bit rate : 1 584 kb/s
Width : 720 pixels
Height : 388 pixels
Display aspect ratio : 1.85:1
Original display aspect ratio : 1.85:1
Frame rate : 23.976 (24000/1001) FPS
Color space : YUV
Chroma subsampling : 4:2:0
Bit depth : 8 bits
Scan type : Progressive
Compression mode : Lossy
Bits/(Pixel*Frame) : 0.236
Stream size : 1.14 GiB (88%)
Writing library : Lavc57.107.100

Audio
ID : 1
Format : MPEG Audio
Format version : Version 1
Format profile : Layer 3
Mode : Joint stereo
Mode extension : MS Stereo
Codec ID : 55
Codec ID/Hint : MP3
Duration : 1 h 43 min
Bit rate mode : Constant
Bit rate : 192 kb/s
Channel(s) : 2 channels
Sampling rate : 48.0 kHz
Compression mode : Lossy
Stream size : 142 MiB (11%)
Alignment : Aligned on interleaves
Interleave, duration : 24 ms (0.58 video frame)
Interleave, preload duration : 24 ms
Writing library : LAME3.99.5

General
The.Seven-Ups.1973.REMASTERED.720p.BluRay.x264-PSYCHD.mkv
Format : Matroska
Format version : Version 4 / Version 2
File size : 6.55 GiB
Duration : 1 h 43 min
Overall bit rate : 9 084 kb/s
Encoded date : UTC 2010-02-22 21:41:29
Writing application : no_variable_data
Writing library : no_variable_data

Video
ID : 1
Format : AVC
Format/Info : Advanced Video Codec
Format profile : High@L4.1
Format settings, CABAC : Yes
Format settings, ReFrames : 9 frames
Codec ID : V_MPEG4/ISO/AVC
Duration : 1 h 43 min
Bit rate : 7 575 kb/s
Width : 1 280 pixels
Height : 688 pixels
Display aspect ratio : 1.85:1
Frame rate mode : Constant
Frame rate : 23.976 (24000/1001) FPS
Color space : YUV
Chroma subsampling : 4:2:0
Bit depth : 8 bits
Scan type : Progressive
Bits/(Pixel*Frame) : 0.359
Stream size : 5.34 GiB (81%)
Writing library : x264 core 155 r2901 7d0ff22
Encoding settings : cabac=1 / ref=9 / deblock=1:-3:-3 / analyse=0x3:0x133 / me=umh / subme=10 / psy=1 / psy_rd=1.10:0.00 / mixed_ref=1 / me_range=24 / chroma_me=1 / trellis=2 / 8x8dct=1 / cqm=0 / deadzone=21,11 / fast_pskip=0 / chroma_qp_offset=-2 / threads=21 / lookahead_threads=3 / sliced_threads=0 / nr=0 / decimate=1 / interlaced=0 / bluray_compat=0 / constrained_intra=0 / bframes=8 / b_pyramid=2 / b_adapt=2 / b_bias=0 / direct=3 / weightb=1 / open_gop=0 / weightp=2 / keyint=240 / keyint_min=24 / scenecut=40 / intra_refresh=0 / rc_lookahead=60 / rc=2pass / mbtree=1 / bitrate=7575 / ratetol=1.0 / qcomp=0.60 / qpmin=0 / qpmax=69 / qpstep=4 / cplxblur=20.0 / qblur=0.5 / ip_ratio=1.30 / aq=3:0.75
Default : Yes
Forced : No
Statistics Tags Issue : no_variable_data 1970-01-01 00:00:00 / no_variable_data 2010-02-22 21:41:29
FromStats_BitRate : 7572603
FromStats_Duration : 01:43:18.234000000
FromStats_FrameCount : 148609
FromStats_StreamSize : 5867096078

Audio
ID : 2
Format : DTS
Format/Info : Digital Theater Systems
Mode : 16
Format settings, Endianness : Big
Codec ID : A_DTS
Duration : 1 h 43 min
Bit rate mode : Constant
Bit rate : 1 509 kb/s
Channel(s) : 2 channels
Channel positions : Front: L R
Sampling rate : 48.0 kHz
Frame rate : 93.750 FPS (512 spf)
Bit depth : 24 bits
Compression mode : Lossy
Stream size : 1.09 GiB (17%)
Language : English
Default : Yes
Forced : No
Statistics Tags Issue : no_variable_data 1970-01-01 00:00:00 / no_variable_data 2010-02-22 21:41:29
FromStats_BitRate : 1508999
FromStats_Duration : 01:43:18.230000000
FromStats_FrameCount : 581084
FromStats_StreamSize : 1169141008

Text #1
ID : 3
Format : UTF-8
Codec ID : S_TEXT/UTF8
Codec ID/Info : UTF-8 Plain Text
Language : English
Default : No
Forced : No
Statistics Tags Issue : no_variable_data 1970-01-01 00:00:00 / no_variable_data 2010-02-22 21:41:29
FromStats_BitRate : 34
FromStats_Duration : 01:39:32.675000000
FromStats_FrameCount : 674
FromStats_StreamSize : 25534

Text #2
ID : 4
Format : UTF-8
Codec ID : S_TEXT/UTF8
Codec ID/Info : UTF-8 Plain Text
Title : SDH
Language : English
Default : No
Forced : No
Statistics Tags Issue : no_variable_data 1970-01-01 00:00:00 / no_variable_data 2010-02-22 21:41:29
FromStats_BitRate : 35
FromStats_Duration : 01:41:47.476000000
FromStats_FrameCount : 747
FromStats_StreamSize : 27252

Menu
00:00:00.000 : en:00:00:00.000
00:07:02.964 : en:00:07:02.964
00:09:56.012 : en:00:09:56.012
00:11:34.360 : en:00:11:34.360
00:15:59.125 : en:00:15:59.125
00:19:46.185 : en:00:19:46.185
00:25:10.342 : en:00:25:10.342
00:29:50.956 : en:00:29:50.956
00:34:49.713 : en:00:34:49.713
00:39:08.596 : en:00:39:08.596
00:42:33.301 : en:00:42:33.301
00:47:31.307 : en:00:47:31.307
00:51:11.443 : en:00:51:11.443
00:54:16.128 : en:00:54:16.128
00:58:41.351 : en:00:58:41.351
01:04:24.569 : en:01:04:24.569
01:08:21.723 : en:01:08:21.723
01:14:13.699 : en:01:14:13.699
01:16:49.104 : en:01:16:49.104
01:21:13.827 : en:01:21:13.827
01:25:26.705 : en:01:25:26.705
01:29:55.765 : en:01:29:55.765
01:34:47.140 : en:01:34:47.140
01:38:56.556 : en:01:38:56.556

General
The.Seven-Ups.1973.REMASTERED.1080p.BluRay.x264-PSYCHD.mkv
Format : Matroska
Format version : Version 4 / Version 2
File size : 10.9 GiB
Duration : 1 h 43 min
Overall bit rate : 15.1 Mb/s
Encoded date : UTC 2010-02-22 21:41:29
Writing application : no_variable_data
Writing library : no_variable_data

Video
ID : 1
Format : AVC
Format/Info : Advanced Video Codec
Format profile : High@L4.1
Format settings, CABAC : Yes
Format settings, ReFrames : 4 frames
Codec ID : V_MPEG4/ISO/AVC
Duration : 1 h 43 min
Bit rate : 13.6 Mb/s
Width : 1 920 pixels
Height : 1 040 pixels
Display aspect ratio : 1.85:1
Frame rate mode : Constant
Frame rate : 23.976 (24000/1001) FPS
Color space : YUV
Chroma subsampling : 4:2:0
Bit depth : 8 bits
Scan type : Progressive
Bits/(Pixel*Frame) : 0.285
Stream size : 9.62 GiB (88%)
Writing library : x264 core 155 r2901 7d0ff22
Encoding settings : cabac=1 / ref=4 / deblock=1:-3:-3 / analyse=0x3:0x133 / me=umh / subme=10 / psy=1 / psy_rd=1.10:0.00 / mixed_ref=1 / me_range=32 / chroma_me=1 / trellis=2 / 8x8dct=1 / cqm=0 / deadzone=21,11 / fast_pskip=0 / chroma_qp_offset=-2 / threads=32 / lookahead_threads=5 / sliced_threads=0 / nr=0 / decimate=1 / interlaced=0 / bluray_compat=0 / constrained_intra=0 / bframes=8 / b_pyramid=2 / b_adapt=2 / b_bias=0 / direct=3 / weightb=1 / open_gop=0 / weightp=2 / keyint=240 / keyint_min=24 / scenecut=40 / intra_refresh=0 / rc_lookahead=60 / rc=2pass / mbtree=1 / bitrate=13640 / ratetol=1.0 / qcomp=0.60 / qpmin=0 / qpmax=69 / qpstep=4 / cplxblur=20.0 / qblur=0.5 / ip_ratio=1.30 / aq=3:0.75
Default : Yes
Forced : No
Statistics Tags Issue : no_variable_data 1970-01-01 00:00:00 / no_variable_data 2010-02-22 21:41:29
FromStats_BitRate : 13634787
FromStats_Duration : 01:43:18.234000000
FromStats_FrameCount : 148609
FromStats_StreamSize : 10563950816

Audio
ID : 2
Format : DTS
Format/Info : Digital Theater Systems
Mode : 16
Format settings, Endianness : Big
Codec ID : A_DTS
Duration : 1 h 43 min
Bit rate mode : Constant
Bit rate : 1 509 kb/s
Channel(s) : 2 channels
Channel positions : Front: L R
Sampling rate : 48.0 kHz
Frame rate : 93.750 FPS (512 spf)
Bit depth : 24 bits
Compression mode : Lossy
Stream size : 1.09 GiB (10%)
Language : English
Default : Yes
Forced : No
Statistics Tags Issue : no_variable_data 1970-01-01 00:00:00 / no_variable_data 2010-02-22 21:41:29
FromStats_BitRate : 1508999
FromStats_Duration : 01:43:18.230000000
FromStats_FrameCount : 581084
FromStats_StreamSize : 1169141008

Text #1
ID : 3
Format : UTF-8
Codec ID : S_TEXT/UTF8
Codec ID/Info : UTF-8 Plain Text
Language : English
Default : No
Forced : No
Statistics Tags Issue : no_variable_data 1970-01-01 00:00:00 / no_variable_data 2010-02-22 21:41:29
FromStats_BitRate : 34
FromStats_Duration : 01:39:32.675000000
FromStats_FrameCount : 674
FromStats_StreamSize : 25534

Text #2
ID : 4
Format : UTF-8
Codec ID : S_TEXT/UTF8
Codec ID/Info : UTF-8 Plain Text
Title : SDH
Language : English
Default : No
Forced : No
Statistics Tags Issue : no_variable_data 1970-01-01 00:00:00 / no_variable_data 2010-02-22 21:41:29
FromStats_BitRate : 35
FromStats_Duration : 01:41:47.476000000
FromStats_FrameCount : 747
FromStats_StreamSize : 27252

Menu
00:00:00.000 : en:00:00:00.000
00:07:02.964 : en:00:07:02.964
00:09:56.012 : en:00:09:56.012
00:11:34.360 : en:00:11:34.360
00:15:59.125 : en:00:15:59.125
00:19:46.185 : en:00:19:46.185
00:25:10.342 : en:00:25:10.342
00:29:50.956 : en:00:29:50.956
00:34:49.713 : en:00:34:49.713
00:39:08.596 : en:00:39:08.596
00:42:33.301 : en:00:42:33.301
00:47:31.307 : en:00:47:31.307
00:51:11.443 : en:00:51:11.443
00:54:16.128 : en:00:54:16.128
00:58:41.351 : en:00:58:41.351
01:04:24.569 : en:01:04:24.569
01:08:21.723 : en:01:08:21.723
01:14:13.699 : en:01:14:13.699
01:16:49.104 : en:01:16:49.104
01:21:13.827 : en:01:21:13.827
01:25:26.705 : en:01:25:26.705
01:29:55.765 : en:01:29:55.765
01:34:47.140 : en:01:34:47.140
01:38:56.556 : en:01:38:56.556


BRRip Screenshots

The Seven-Ups (1973) [Remastered]

The Seven-Ups (1973) [Remastered]

The Seven-Ups (1973) [Remastered]


BDRip 720p Screenshots

The Seven-Ups (1973) [Remastered]

The Seven-Ups (1973) [Remastered]

The Seven-Ups (1973) [Remastered]


BDRip 1080p Screenshots

The Seven-Ups (1973) [Remastered]

The Seven-Ups (1973) [Remastered]

The Seven-Ups (1973) [Remastered]


Come Visit My Blog (•‿•)