The Snow Queen 3 (2016)

Posted By: JohnSmith
The Snow Queen 3 (2016)

The Snow Queen 3 / Snezhnaya koroleva 3. Ogon i led (2016)
HDRip | AVI / XviD@1780 kb/s | 720x320 | 1h 29mn | 1.24 GB | English: AC3, 192 kb/s (2 ch)
WEB-DL 720p | MKV / AVC@4023 kb/s | 1280x572 | 1h 29mn | 2.64 GB | English: AC3, 192 kb/s (2 ch)
WEB-DL 1080p | MKV / AVC@4500 kb/s | 1920x858 | 1h 29mn | 2.94 GB | English: AC3, 192 kb/s (2 ch)
Genre: Animation | Adventure | Comedy | Family | Sci-Fi

The rare gift of getting into all kinds of trouble is their family trait. What else can you expect from the ones raised among trolls in snowy lands? But now Kai and Gerda have grown up and entered a new stage - this time they are going to cause a global disaster…




General
Complete name : D:\Downloads\The Snow Queen 3.2016.HDRip.XviD.AC3-EVO\The Snow Queen 3.2016.HDRip.XviD.AC3-EVO.avi
Format : AVI
Format/Info : Audio Video Interleave
Format profile : OpenDML
Format settings : rec
File size : 1.24 GiB
Duration : 1 h 29 min
Overall bit rate : 1 988 kb/s
Writing application : AVI-Mux GUI 1.17.8.3, Feb 16 201019:42:50

Video
ID : 0
Format : MPEG-4 Visual
Format profile : Advanced Simple@L5
Format settings, BVOP : 2
Format settings, QPel : No
Format settings, GMC : No warppoints
Format settings, Matrix : Default (MPEG)
Codec ID : XVID
Codec ID/Hint : XviD
Duration : 1 h 29 min
Bit rate : 1 791 kb/s
Width : 720 pixels
Height : 320 pixels
Display aspect ratio : 2.25:1
Frame rate : 24.000 FPS
Color space : YUV
Chroma subsampling : 4:2:0
Bit depth : 8 bits
Scan type : Progressive
Compression mode : Lossy
Bits/(Pixel*Frame) : 0.324
Stream size : 1.12 GiB (90%)
Writing library : XviD 1.2.1 (UTC 2008-12-04)

Audio
ID : 1
Format : AC-3
Format/Info : Audio Coding 3
Mode extension : CM (complete main)
Format settings, Endianness : Big
Codec ID : 2000
Duration : 1 h 29 min
Bit rate mode : Constant
Bit rate : 192 kb/s
Channel(s) : 2 channels
Channel positions : Front: L R
Sampling rate : 48.0 kHz
Frame rate : 31.250 FPS (1536 spf)
Compression mode : Lossy
Stream size : 123 MiB (10%)
Alignment : Aligned on interleaves
Interleave, duration : 64 ms (1.54 video frames)
Interleave, preload duratio : 192 ms
Title : en_192





General
Unique ID : 228424429201383187471394480925894997225 (0xABD8F1DFE90BD8E3AEDFFA15C17F74E9)
Complete name : A:\The.Snow.Queen.3.720p.WEB-DL.mkv
Format : Matroska
Format version : Version 4 / Version 2
File size : 2.64 GiB
Duration : 1 h 29 min
Overall bit rate : 4 216 kb/s
Encoded date : UTC 2017-02-09 15:10:16
Writing application : mkvmerge v8.3.0 ('Over the Horizon') 64bit
Writing library : libebml v1.3.1 + libmatroska v1.4.2

Video
ID : 1
Format : AVC
Format/Info : Advanced Video Codec
Format profile : High@L3.1
Format settings, CABAC : No
Format settings, ReFrames : 2 frames
Codec ID : V_MPEG4/ISO/AVC
Duration : 1 h 29 min
Bit rate : 4 023 kb/s
Width : 1 280 pixels
Height : 572 pixels
Display aspect ratio : 2.25:1
Frame rate mode : Constant
Frame rate : 24.000 FPS
Color space : YUV
Chroma subsampling : 4:2:0
Bit depth : 8 bits
Scan type : Progressive
Bits/(Pixel*Frame) : 0.229
Stream size : 2.52 GiB (95%)
Language : English
Default : Yes
Forced : No
Color range : Limited
Color primaries : BT.709
Transfer characteristics : BT.709
Matrix coefficients : BT.709

Audio
ID : 2
Format : AC-3
Format/Info : Audio Coding 3
Mode extension : CM (complete main)
Format settings, Endianness : Big
Codec ID : A_AC3
Duration : 1 h 29 min
Bit rate mode : Constant
Bit rate : 192 kb/s
Channel(s) : 2 channels
Channel positions : Front: L R
Sampling rate : 48.0 kHz
Frame rate : 31.250 FPS (1536 spf)
Compression mode : Lossy
Stream size : 123 MiB (5%)
Default : Yes
Forced : No





General
Unique ID : 176025534493812156223896065496232295652 (0x846D48E7B98DA443A954FE85AC04FCE4)
Complete name : A:\The.Snow.Queen.3.1080p.WEB-DL.mkv
Format : Matroska
Format version : Version 4 / Version 2
File size : 2.94 GiB
Duration : 1 h 29 min
Overall bit rate : 4 696 kb/s
Encoded date : UTC 2017-02-09 15:09:12
Writing application : mkvmerge v8.3.0 ('Over the Horizon') 64bit
Writing library : libebml v1.3.1 + libmatroska v1.4.2

Video
ID : 1
Format : AVC
Format/Info : Advanced Video Codec
Format profile : High@L4
Format settings, CABAC : Yes
Format settings, ReFrames : 5 frames
Codec ID : V_MPEG4/ISO/AVC
Duration : 1 h 29 min
Bit rate : 4 502 kb/s
Width : 1 920 pixels
Height : 858 pixels
Display aspect ratio : 2.25:1
Frame rate mode : Constant
Frame rate : 24.000 FPS
Color space : YUV
Chroma subsampling : 4:2:0
Bit depth : 8 bits
Scan type : Progressive
Bits/(Pixel*Frame) : 0.114
Stream size : 2.82 GiB (96%)
Language : English
Default : Yes
Forced : No
Color range : Limited
Color primaries : BT.709
Transfer characteristics : BT.709
Matrix coefficients : BT.709

Audio
ID : 2
Format : AC-3
Format/Info : Audio Coding 3
Mode extension : CM (complete main)
Format settings, Endianness : Big
Codec ID : A_AC3
Duration : 1 h 29 min
Bit rate mode : Constant
Bit rate : 192 kb/s
Channel(s) : 2 channels
Channel positions : Front: L R
Sampling rate : 48.0 kHz
Frame rate : 31.250 FPS (1536 spf)
Compression mode : Lossy
Stream size : 123 MiB (4%)
Default : Yes
Forced : No




Screenshots HDRip

The Snow Queen 3 (2016)

The Snow Queen 3 (2016)

The Snow Queen 3 (2016)


Screenshots WEB-DL 720p

The Snow Queen 3 (2016)

The Snow Queen 3 (2016)

The Snow Queen 3 (2016)


Screenshots WEB-DL 1080p

The Snow Queen 3 (2016)

The Snow Queen 3 (2016)

The Snow Queen 3 (2016)