Subcategories

The Son of Bigfoot (2017)

Posted By: JohnSmith
The Son of Bigfoot (2017)

The Son of Bigfoot (2017)
HDRip | AVI / XviD@1500 kb/s | 720x304 | 1h 31mn | 1.21 GB | English: AC3, 384 kb/s (6 ch)
WEB-DL 720p | MKV / AVC@3400 kb/s | 1280x536 | 1h 31mn | 2.39 GB | English: AC3, 384 kb/s (6 ch)
WEB-DL 1080p | MKV / AVC@4414 kb/s | 1920x798 | 1h 31mn | 3.14 GB | English: AC3, 384 kb/s (6 ch)
Genre: Animation | Comedy

A teenage boy journeys to find his missing father only to discover that he's actually Bigfoot.




General
Complete name : G:\The Son of Bigfoot.2017.HDRip.XviD.AC3-EVO\The Son of Bigfoot.2017.HDRip.XviD.AC3-EVO.avi
Format : AVI
Format/Info : Audio Video Interleave
File size : 1.21 GiB
Duration : 1 h 31 min
Overall bit rate : 1 891 kb/s
Writing library : VirtualDub build 32593/release

Video
ID : 0
Format : MPEG-4 Visual
Format profile : Advanced Simple@L5
Format settings, BVOP : 2
Format settings, QPel : No
Format settings, GMC : No warppoints
Format settings, Matrix : Default (H.263)
Muxing mode : Packed bitstream
Codec ID : XVID
Codec ID/Hint : XviD
Duration : 1 h 31 min
Bit rate : 1 498 kb/s
Width : 720 pixels
Height : 304 pixels
Display aspect ratio : 2.35:1
Frame rate : 23.976 (24000/1001) FPS
Color space : YUV
Chroma subsampling : 4:2:0
Bit depth : 8 bits
Scan type : Progressive
Compression mode : Lossy
Bits/(Pixel*Frame) : 0.285
Stream size : 983 MiB (79%)
Writing library : XviD 66

Audio
ID : 1
Format : AC-3
Format/Info : Audio Coding 3
Format settings, Endianness : Big
Codec ID : 2000
Duration : 1 h 31 min
Bit rate mode : Constant
Bit rate : 384 kb/s
Channel(s) : 6 channels
Channel positions : Front: L C R, Side: L R, LFE
Sampling rate : 48.0 kHz
Frame rate : 31.250 FPS (1536 spf)
Bit depth : 16 bits
Compression mode : Lossy
Stream size : 252 MiB (20%)
Alignment : Aligned on interleaves
Interleave, duration : 42 ms (1.00 video frame)
Interleave, preload duratio : 512 ms
Service kind : Complete Main





General
Unique ID : 202764634231746724203339188307807034391 (0x988B0C4E8282DBFFBA56AC0E6199DC17)
Complete name : G:\The Son of Bigfoot.2017.720p.WEB-DL.X264.AC3-EVO\The Son of Bigfoot.2017.720p.WEB-DL.X264.AC3-EVO.mkv
Format : Matroska
Format version : Version 4 / Version 2
File size : 2.39 GiB
Duration : 1 h 31 min
Overall bit rate : 3 730 kb/s
Movie name : EVO
Encoded date : UTC 2017-11-14 14:58:06
Writing application : mkvmerge v6.7.0 ('Back to the Ground') 64bit built on Jan 8 2014 15:10:52
Writing library : libebml v1.3.0 + libmatroska v1.4.1

Video
ID : 1
Format : AVC
Format/Info : Advanced Video Codec
Format profile : High@L4.1
Format settings, CABAC : Yes
Format settings, ReFrames : 4 frames
Codec ID : V_MPEG4/ISO/AVC
Duration : 1 h 31 min
Bit rate : 3 400 kb/s
Width : 1 280 pixels
Height : 536 pixels
Display aspect ratio : 2.40:1
Frame rate mode : Constant
Frame rate : 23.976 (24000/1001) FPS
Color space : YUV
Chroma subsampling : 4:2:0
Bit depth : 8 bits
Scan type : Progressive
Bits/(Pixel*Frame) : 0.207
Stream size : 2.10 GiB (88%)
Writing library : x264 core 142 r2479 dd79a61
Encoding settings : cabac=1 / ref=1 / deblock=1:0:0 / analyse=0x3:0x113 / me=hex / subme=2 / psy=1 / psy_rd=1.00:0.00 / mixed_ref=0 / me_range=16 / chroma_me=1 / trellis=0 / 8x8dct=1 / cqm=0 / deadzone=21,11 / fast_pskip=1 / chroma_qp_offset=0 / threads=12 / lookahead_threads=4 / sliced_threads=0 / nr=0 / decimate=1 / interlaced=0 / bluray_compat=0 / constrained_intra=0 / bframes=3 / b_pyramid=2 / b_adapt=1 / b_bias=0 / direct=1 / weightb=1 / open_gop=0 / weightp=1 / keyint=240 / keyint_min=24 / scenecut=40 / intra_refresh=0 / rc_lookahead=10 / rc=abr / mbtree=1 / bitrate=3400 / ratetol=1.0 / qcomp=0.60 / qpmin=0 / qpmax=69 / qpstep=4 / vbv_maxrate=62500 / vbv_bufsize=78125 / nal_hrd=none / filler=0 / ip_ratio=1.40 / aq=1:1.00
Default : Yes
Forced : No
Color range : Limited
Color primaries : BT.709
Transfer characteristics : BT.709
Matrix coefficients : BT.709

Audio
ID : 2
Format : AC-3
Format/Info : Audio Coding 3
Format settings, Endianness : Big
Codec ID : A_AC3
Duration : 1 h 31 min
Bit rate mode : Constant
Bit rate : 384 kb/s
Channel(s) : 6 channels
Channel positions : Front: L C R, Side: L R, LFE
Sampling rate : 48.0 kHz
Frame rate : 31.250 FPS (1536 spf)
Bit depth : 16 bits
Compression mode : Lossy
Delay relative to video : -5 ms
Stream size : 252 MiB (10%)
Title : Surround
Language : English
Service kind : Complete Main
Default : Yes
Forced : No

Menu
00:00:00.000 : :1
00:05:51.726 : :2
00:12:17.153 : :3
00:17:55.032 : :4
00:22:50.118 : :5
00:27:17.928 : :6
00:34:04.751 : :7
00:41:53.719 : :8
00:46:30.954 : :9
00:50:29.776 : :10
00:57:29.446 : :11
01:02:09.934 : :12
01:09:03.264 : :13
01:14:14.241 : :14
01:22:58.557 : :15
01:26:11.958 : :16





General
Unique ID : 234174494869183844876330393273273205031 (0xB02C5E0008EB5443A2360E1A5A50C127)
Complete name : G:\The Son of Bigfoot.2017.1080p.WEB-DL.H264.AC3-EVO\The Son of Bigfoot.2017.1080p.WEB-DL.H264.AC3-EVO.mkv
Format : Matroska
Format version : Version 4 / Version 2
File size : 3.14 GiB
Duration : 1 h 31 min
Overall bit rate : 4 895 kb/s
Movie name : EVO
Encoded date : UTC 2017-11-14 14:44:08
Writing application : mkvmerge v6.7.0 ('Back to the Ground') 64bit built on Jan 8 2014 15:10:52
Writing library : libebml v1.3.0 + libmatroska v1.4.1

Video
ID : 2
Format : AVC
Format/Info : Advanced Video Codec
Format profile : High@L4
Format settings, CABAC : Yes
Format settings, ReFrames : 5 frames
Codec ID : V_MPEG4/ISO/AVC
Duration : 1 h 31 min
Bit rate : 4 414 kb/s
Width : 1 920 pixels
Height : 798 pixels
Display aspect ratio : 2.40:1
Frame rate mode : Constant
Frame rate : 23.976 FPS
Color space : YUV
Chroma subsampling : 4:2:0
Bit depth : 8 bits
Scan type : Progressive
Bits/(Pixel*Frame) : 0.120
Stream size : 2.83 GiB (90%)
Language : English
Default : Yes
Forced : No
Color range : Limited
Color primaries : BT.709
Transfer characteristics : BT.709
Matrix coefficients : BT.709

Audio
ID : 1
Format : AC-3
Format/Info : Audio Coding 3
Format settings, Endianness : Big
Codec ID : A_AC3
Duration : 1 h 31 min
Bit rate mode : Constant
Bit rate : 384 kb/s
Channel(s) : 6 channels
Channel positions : Front: L C R, Side: L R, LFE
Sampling rate : 48.0 kHz
Frame rate : 31.250 FPS (1536 spf)
Bit depth : 16 bits
Compression mode : Lossy
Stream size : 252 MiB (8%)
Language : English
Service kind : Complete Main
Default : Yes
Forced : No

Menu
00:00:00.000 : en:1
00:05:51.601 : en:2
00:12:17.028 : en:3
00:17:54.907 : en:4
00:22:49.952 : en:5
00:27:17.803 : en:6
00:34:04.625 : en:7
00:41:53.592 : en:8
00:46:30.827 : en:9
00:50:29.649 : en:10
00:57:29.317 : en:11
01:02:09.804 : en:12
01:09:03.132 : en:13
01:14:14.108 : en:14
01:22:58.382 : en:15
01:26:11.825 : en:16




Screenshots HDRip

The Son of Bigfoot (2017)

The Son of Bigfoot (2017)

The Son of Bigfoot (2017)


Screenshots WEB-DL 720p

The Son of Bigfoot (2017)

The Son of Bigfoot (2017)

The Son of Bigfoot (2017)


Screenshots WEB-DL 1080p

The Son of Bigfoot (2017)

The Son of Bigfoot (2017)

The Son of Bigfoot (2017)