Subcategories

The Two Dollar Bill Documentary (2015)

Posted By: JohnSmith
The Two Dollar Bill Documentary (2015)

The Two Dollar Bill Documentary (2015)
WEBRip 1080p | MKV / AVC@7400 kb/s | 1920x1080 | 1h 42mn | 5.46 GB
English: AC3, 224 kb/s (2 ch) | Subtitles: English
Genre: Documentary

Everyone has had a two dollar bill before, right? Most people believe they're out of print, good or bad luck, or a rare commodity. But in this comprehensive documentary, all aspects of the "deuce" are explored - from its history to the superstitions surrounding it; from its use by special interest groups to the way it's perceived by consumers and vendors. The film even looks at the bill's popularity at adult establishments and the subculture of users that cherish the bill.




General
Unique ID : 213629261859064748234692181021506463862 (0xA0B77FCE44F854858CD1FCD23810E876)
Complete name : D:\Downloads\The.Two.Dollar.Bill.Documentary.2015.1080p.AMZN.WEB-DL.DD+2.0.H.264-TenaciousD.mkv
Format : Matroska
Format version : Version 4 / Version 2
File size : 5.46 GiB
Duration : 1 h 42 min
Overall bit rate mode : Variable
Overall bit rate : 7 627 kb/s
Encoded date : UTC 2017-08-02 11:08:03
Writing application : mkvmerge v14.0.0 ('Flow') 64bit
Writing library : libebml v1.3.4 + libmatroska v1.4.5

Video
ID : 1
Format : AVC
Format/Info : Advanced Video Codec
Format profile : High@L4
Format settings, CABAC : Yes
Format settings, ReFrames : 4 frames
Codec ID : V_MPEG4/ISO/AVC
Duration : 1 h 42 min
Bit rate mode : Variable
Bit rate : 7 400 kb/s
Maximum bit rate : 15.0 Mb/s
Width : 1 920 pixels
Height : 1 080 pixels
Display aspect ratio : 16:9
Frame rate mode : Constant
Frame rate : 29.970 (30000/1001) FPS
Color space : YUV
Chroma subsampling : 4:2:0
Bit depth : 8 bits
Scan type : Progressive
Bits/(Pixel*Frame) : 0.119
Stream size : 5.30 GiB (97%)
Default : Yes
Forced : No
Color range : Limited
Color primaries : BT.709
Transfer characteristics : BT.709
Matrix coefficients : BT.709

Audio
ID : 2
Format : E-AC-3
Format/Info : Enhanced Audio Coding 3
Format settings, Endianness : Big
Codec ID : A_EAC3
Duration : 1 h 42 min
Bit rate mode : Constant
Bit rate : 224 kb/s
Channel(s) : 2 channels
Channel positions : Front: L R
Sampling rate : 48.0 kHz
Frame rate : 187.500 FPS (256 spf)
Compression mode : Lossy
Stream size : 164 MiB (3%)
Language : English
Service kind : Complete Main
Default : Yes
Forced : No

Text
ID : 3
Format : UTF-8
Codec ID : S_TEXT/UTF8
Codec ID/Info : UTF-8 Plain Text
Duration : 1 h 42 min
Bit rate : 125 b/s
Count of elements : 2397
Stream size : 93.7 KiB (0%)
Language : English
Default : No
Forced : No




Screenshots

The Two Dollar Bill Documentary (2015)

The Two Dollar Bill Documentary (2015)

The Two Dollar Bill Documentary (2015)