Tags
Language
Tags

NHK - The Ultimate Formula (2016)

Posted By: Tutorial
1080p (FullHD) / HDTV
NHK - The Ultimate Formula (2016)

NHK - The Ultimate Formula (2016)
HDTV | 1920 x 1080 | .MP4/AVC @ 4200 Kbps | 2x~46mn | 2.84 GB
Audio: English AAC 154 Kbps, 2 channels | Subs: English
Genre: Documentary, Science

For over a century, physicists have searched for a blueprint of the universe in the form of a single mathematical formula. Through interviews with Nobel Prize-winning physicists, we look at the fascinating and dramatic story of the search for the ultimate formula.

Part 1: What is the Universe Made of ?
For over a century, physicists have searched for a blueprint of the universe in the form of a single mathematical formula. This ultimate formula would explain the fundamental building blocks of the universe -– the elementary particles and the different forces that govern them. In their quest, physicists dedicated themselves to the pursuit of mathematical beauty but they were to be met with unexpected setbacks. The discovery of the Higgs boson in 2012 at last confirmed the Standard Model –- a culmination of the theories of various physicists that finally seemed to explain what this universe is made of. But is this where the story ends…? Using the latest computer graphics and interviews with Nobel Prize-winning physicists, we look at the fascinating and dramatic story of the search for the ultimate formula.

Part 2: How did the Universe Begin ?
The human race has succeeded in explaining nearly everything in this universe using mathematical formulae. Yet there is one place that remains shrouded in mystery -– black holes. Physicists believe that if they could discover a formula that explains the center of black holes, the last remaining mystery of the universe could finally be unraveled -– how the universe came into being. Their attempts have been mired by unforeseen pitfalls but with the development of superstring theory, physicists have arrived at a formula that could finally end their century-long search. What the formula described was a world beyond our wildest imaginations. This is the incredible story of physicists like Einstein, Hawking and the superstring theorists who have endeavored to solve the mystery of the origin of the universe.

General
Complete name : The.Ultimate.Formula.1of2.What.is.the.Universe.Made.mp4
Format : MPEG-4
Format profile : Base Media
Codec ID : isom (isom)
File size : 1.40 GiB
Duration : 46 min 6 s
Overall bit rate mode : Variable
Overall bit rate : 4 358 kb/s
Encoded date : UTC 2017-07-04 22:44:39
Tagged date : UTC 2017-07-04 22:44:39
Writing application : My MP4Box GUI 0.6.0.6

Video
ID : 1
Format : AVC
Format/Info : Advanced Video Codec
Format profile : High@L4.1
Format settings, CABAC : Yes
Format settings, ReFrames : 4 frames
Codec ID : avc1
Codec ID/Info : Advanced Video Coding
Duration : 46 min 6 s
Bit rate : 4 200 kb/s
Maximum bit rate : 19.8 Mb/s
Width : 1 920 pixels
Height : 1 080 pixels
Display aspect ratio : 16:9
Frame rate mode : Constant
Frame rate : 29.970 (30000/1001) FPS
Color space : YUV
Chroma subsampling : 4:2:0
Bit depth : 8 bits
Scan type : Progressive
Bits/(Pixel*Frame) : 0.068
Stream size : 1.35 GiB (96%)
Title : The.Ultimate.Formula.1of2.What.is.the.Universe.Made.Of.1080p.HDTV.x264.AAC.
Writing library : x264 core 130 r2273 b3065e6
Encoding settings : cabac=1 / ref=1 / deblock=1:0:0 / analyse=0x3:0x3 / me=dia / subme=1 / psy=1 / psy_rd=1.00:0.00 / mixed_ref=0 / me_range=16 / chroma_me=1 / trellis=0 / 8x8dct=1 / cqm=0 / deadzone=21,11 / fast_pskip=1 / chroma_qp_offset=0 / threads=6 / lookahead_threads=1 / sliced_threads=0 / nr=0 / decimate=1 / interlaced=0 / bluray_compat=0 / constrained_intra=0 / bframes=3 / b_pyramid=2 / b_adapt=1 / b_bias=0 / direct=1 / weightb=1 / open_gop=0 / weightp=1 / keyint=300 / keyint_min=30 / scenecut=40 / intra_refresh=0 / rc_lookahead=0 / rc=abr / mbtree=0 / bitrate=4200 / ratetol=1.0 / qcomp=0.60 / qpmin=0 / qpmax=69 / qpstep=4 / vbv_maxrate=62500 / vbv_bufsize=78125 / nal_hrd=none / ip_ratio=1.40 / pb_ratio=1.30 / aq=1:1.00
Encoded date : UTC 2017-07-04 02:30:09
Tagged date : UTC 2017-07-04 22:45:04
Color range : Limited
Color primaries : BT.709
Transfer characteristics : BT.709
Matrix coefficients : BT.709

Audio
ID : 2
Format : AAC
Format/Info : Advanced Audio Codec
Format profile : LC
Codec ID : 40
Duration : 46 min 6 s
Bit rate mode : Variable
Bit rate : 154 kb/s
Maximum bit rate : 310 kb/s
Channel(s) : 2 channels
Channel positions : Front: L R
Sampling rate : 44.1 kHz
Frame rate : 43.066 FPS (1024 spf)
Compression mode : Lossy
Stream size : 50.8 MiB (4%)
Title : The.Ultimate.Formula.1of2.What.is.the.Universe.Made.Of.1080p.HDTV.x264.AAC
Encoded date : UTC 2017-07-04 22:45:01
Tagged date : UTC 2017-07-04 22:45:04

Text
ID : 3
Format : Timed Text
Codec ID : tx3g
Duration : 45 min 28 s
Bit rate mode : Variable
Bit rate : 84 b/s
Stream size : 27.9 KiB (0%)
Title : The.Ultimate.Formula.1of2.What.is.the.Universe.Made.Of.1080p.HDTV.x264.AAC
Forced : No
Encoded date : UTC 2017-07-04 22:45:04
Tagged date : UTC 2017-07-04 22:45:04
Screenshots

NHK - The Ultimate Formula (2016)

NHK - The Ultimate Formula (2016)

NHK - The Ultimate Formula (2016)

NHK - The Ultimate Formula (2016)

Welcome to my blog - daily update!

NHK - The Ultimate Formula (2016)