The Victoria's Secret Fashion Show (2014)

Posted By: notbanned
The Victoria's Secret Fashion Show (2014)

The Victoria's Secret Fashion Show (2014)
HDTV | 1280x720 | .MKV/AVC @ 4593 Kbps | 42mn 44s | Audio: English AC3 384 kbps, 6 channels | Subs: None | 1.52 GiB
Genre: TV Shows

We can’t believe the 2014 Victoria’s Secret Fashion Show has already come and gone, and neither can the fans! They’ve flocked to Twitter to discuss the show and they’re currently debating which Angel is the hottest. See what they’re saying here! Behati Prinsloo, Lily Aldridge, Candice Swanepoel, Karlie Kloss, Adriana Lima and Alessandra Ambrosio looked fierce while walking down the runway during the 2014 Victoria’s Secret Fashion Show.


General
Unique ID : 212149567047017270927010147967660935739 (0x9F9A85380C1B5C58BBB6B79DD07B4A3B)
Complete name : The.Victorias.Secret.Fashion.Show.2014.mkv
Format : Matroska
Format version : Version 4 / Version 2
File size : 1.52 GiB
Duration : 42mn 44s
Overall bit rate : 5 078 Kbps

Video
ID : 1
Format : AVC
Format/Info : Advanced Video Codec
Format profile : High@L4.1
Format settings, CABAC : Yes
Format settings, ReFrames : 5 frames
Codec ID : V_MPEG4/ISO/AVC
Duration : 42mn 44s
Bit rate : 4 593 Kbps
Width : 1 280 pixels
Height : 720 pixels
Display aspect ratio : 16:9
Frame rate : 29.970 fps
Color space : YUV
Chroma subsampling : 4:2:0
Bit depth : 8 bits
Scan type : Progressive
Bits/(Pixel*Frame) : 0.166
Stream size : 1.37 GiB (90%)
Writing library : x264 core 142 r2491 24e4fed
Encoding settings : cabac=1 / ref=5 / deblock=1:0:0 / analyse=0x3:0x113 / me=umh / subme=8 / psy=1 / psy_rd=1.00:0.00 / mixed_ref=1 / me_range=16 / chroma_me=1 / trellis=1 / 8x8dct=1 / cqm=0 / deadzone=21,11 / fast_pskip=1 / chroma_qp_offset=-2 / threads=18 / lookahead_threads=3 / sliced_threads=0 / nr=0 / decimate=1 / interlaced=0 / bluray_compat=0 / constrained_intra=0 / bframes=3 / b_pyramid=2 / b_adapt=2 / b_bias=0 / direct=3 / weightb=1 / open_gop=0 / weightp=2 / keyint=250 / keyint_min=25 / scenecut=40 / intra_refresh=0 / rc_lookahead=50 / rc=crf / mbtree=1 / crf=22.0 / qcomp=0.60 / qpmin=0 / qpmax=69 / qpstep=4 / ip_ratio=1.40 / aq=1:1.00
Language : English
Default : Yes
Forced : No
Matrix coefficients : BT.709-5, BT.1361, IEC 61966-2-4 709, SMPTE RP177

Audio
ID : 2
Format : AC-3
Format/Info : Audio Coding 3
Mode extension : CM (complete main)
Format settings, Endianness : Big
Codec ID : A_AC3
Duration : 42mn 44s
Bit rate mode : Constant
Bit rate : 384 Kbps
Channel(s) : 6 channels
Channel positions : Front: L C R, Side: L R, LFE
Sampling rate : 48.0 KHz
Bit depth : 16 bits
Compression mode : Lossy
Stream size : 117 MiB (8%)
Default : Yes
Forced : No


Screenshots:

The Victoria's Secret Fashion Show (2014)

The Victoria's Secret Fashion Show (2014)

The Victoria's Secret Fashion Show (2014)

The Victoria's Secret Fashion Show (2014)

The Victoria's Secret Fashion Show (2014)