The Walking Dead S08E02 (2017)

Posted By: JohnSmith
The Walking Dead S08E02 (2017)

The Walking Dead S08E02 (2017)
WEB-DL 720p | MKV / AVC@4280 kb/s | 1280x720 | 41mn | 1.47 GB
English: AC3, 640 kb/s (6 ch) | Subtitles: English
WEB-DL 1080p | MKV / AVC@14.4 Mb/s | 1920x1080 | 41mn | 4.40 GB
English: AC3, 640 kb/s (6 ch) | Subtitles: English
Genre: Drama | Horror

Sheriff Deputy Rick Grimes gets shot in combat and awakens to a zombie apocalypse. He meets a group on the outskirts of Atlanta and soon, becomes their leader. The walkers (what they call zombies) feed on the living, so they try to move to different and safer locations to survive.

IMDB - Nominated for 1 Golden Globe. Another 63 wins & 175 nominations.



General
Unique ID : 187858987920331521626905381217699280970 (0x8D5453343C5BA793924B62E6BC6EB84A)
Complete name : D:\Downloads\The.Walking.Dead.S08E02.The.Damned.720p.AMZN.WEB-DL.DD+5.1.H.264-CasStudio.mkv
Format : Matroska
Format version : Version 4 / Version 2
File size : 1.47 GiB
Duration : 41 min 47 s
Overall bit rate mode : Variable
Overall bit rate : 5 020 kb/s
Movie name : The Walking Dead 08x02 (The Damned) - release by messafan for CasStudio
Encoded date : UTC 2017-10-30 07:22:10
Writing application : mkvmerge v6.7.0 ('Back to the Ground') 64bit built on Jan 8 2014 15:10:52
Writing library : libebml v1.3.0 + libmatroska v1.4.1

Video
ID : 1
Format : AVC
Format/Info : Advanced Video Codec
Format profile : High@L3.1
Format settings, CABAC : Yes
Format settings, ReFrames : 5 frames
Codec ID : V_MPEG4/ISO/AVC
Duration : 41 min 47 s
Bit rate mode : Variable
Bit rate : 4 280 kb/s
Maximum bit rate : 4 500 kb/s
Width : 1 280 pixels
Height : 720 pixels
Display aspect ratio : 16:9
Frame rate mode : Constant
Frame rate : 23.976 (24000/1001) FPS
Color space : YUV
Chroma subsampling : 4:2:0
Bit depth : 8 bits
Scan type : Progressive
Bits/(Pixel*Frame) : 0.194
Stream size : 1.25 GiB (85%)
Default : Yes
Forced : No
Color range : Limited
Color primaries : BT.709
Transfer characteristics : BT.709
Matrix coefficients : BT.709

Audio
ID : 2
Format : E-AC-3
Format/Info : Enhanced Audio Coding 3
Format settings, Endianness : Big
Codec ID : A_EAC3
Duration : 41 min 47 s
Bit rate mode : Constant
Bit rate : 640 kb/s
Channel(s) : 6 channels
Channel positions : Front: L C R, Side: L R, LFE
Sampling rate : 48.0 kHz
Frame rate : 187.500 FPS (256 spf)
Compression mode : Lossy
Stream size : 191 MiB (13%)
Language : English
Service kind : Complete Main
Default : Yes
Forced : No

Text
ID : 3
Format : UTF-8
Codec ID : S_TEXT/UTF8
Codec ID/Info : UTF-8 Plain Text
Title : SDH
Language : English
Default : No
Forced : No





General
Unique ID : 243811122480466286641904907725396065663 (0xB76C506C86B95BF4B9F6BCEF90E13D7F)
Complete name : D:\Downloads\The.Walking.Dead.S08E02.1080p.WEB.H264-STRiFE[rarbg]\the.walking.dead.s08e02.1080p.web.h264-strife.mkv
Format : Matroska
Format version : Version 4 / Version 2
File size : 4.40 GiB
Duration : 41 min 47 s
Overall bit rate mode : Variable
Overall bit rate : 15.1 Mb/s
Encoded date : UTC 2017-10-30 07:20:35
Writing application : mkvmerge v11.0.0 ('Alive') 64bit
Writing library : libebml v1.3.4 + libmatroska v1.4.5

Video
ID : 1
Format : AVC
Format/Info : Advanced Video Codec
Format profile : High@L4
Format settings, CABAC : Yes
Format settings, ReFrames : 4 frames
Codec ID : V_MPEG4/ISO/AVC
Duration : 41 min 47 s
Bit rate mode : Variable
Bit rate : 14.4 Mb/s
Maximum bit rate : 15.0 Mb/s
Width : 1 920 pixels
Height : 1 080 pixels
Display aspect ratio : 16:9
Frame rate mode : Constant
Frame rate : 23.976 (24000/1001) FPS
Color space : YUV
Chroma subsampling : 4:2:0
Bit depth : 8 bits
Scan type : Progressive
Bits/(Pixel*Frame) : 0.291
Stream size : 4.22 GiB (96%)
Language : English
Default : Yes
Forced : No
Color range : Limited
Color primaries : BT.709
Transfer characteristics : BT.709
Matrix coefficients : BT.709

Audio
ID : 2
Format : E-AC-3
Format/Info : Enhanced Audio Coding 3
Format settings, Endianness : Big
Codec ID : A_EAC3
Duration : 41 min 47 s
Bit rate mode : Constant
Bit rate : 640 kb/s
Channel(s) : 6 channels
Channel positions : Front: L C R, Side: L R, LFE
Sampling rate : 48.0 kHz
Frame rate : 187.500 FPS (256 spf)
Compression mode : Lossy
Stream size : 191 MiB (4%)
Language : English
Service kind : Complete Main
Default : Yes
Forced : No

Text
ID : 3
Format : UTF-8
Codec ID : S_TEXT/UTF8
Codec ID/Info : UTF-8 Plain Text
Duration : 41 min 38 s
Bit rate : 35 b/s
Count of elements : 618
Stream size : 10.9 KiB (0%)
Language : English
Default : No
Forced : No




Screenshots WEB-DL 720p

The Walking Dead S08E02 (2017)

The Walking Dead S08E02 (2017)

The Walking Dead S08E02 (2017)


Screenshots WEB-DL 1080p

The Walking Dead S08E02 (2017)

The Walking Dead S08E02 (2017)

The Walking Dead S08E02 (2017)