The Walking Dead S08E04 (2017)

Posted By: JohnSmith
The Walking Dead S08E04 (2017)

The Walking Dead S08E04 (2017)
HDRip | MKV / AVC@1500 kb/s | 720x400 | 42mn | 567 MB | English: AC3, 384 kb/s (6 ch)
WEB-DL 720p | MKV / AVC@4400 kb/s | 1280x720 | 41mn | 1.47 GB
English: AC3, 640 kb/s (6 ch) | Subtitles: English
WEB-DL 1080p | MKV / AVC@14.4 Mb/s | 1920x1080 | 41mn | 4.38 GB
English: AC3, 640 kb/s (6 ch) | Subtitles: English
Genre: Drama | Horror | Thriller

Sheriff Deputy Rick Grimes gets shot in combat and awakens to a zombie apocalypse. He meets a group on the outskirts of Atlanta and soon, becomes their leader. The walkers (what they call zombies) feed on the living, so they try to move to different and safer locations to survive.

IMDB - Nominated for 1 Golden Globe. Another 63 wins & 175 nominations.



General
Unique ID : 225405881148913832598522824990988873409 (0xA99397F71FD57F5EAA769305482EAEC1)
Complete name : A:\The.Walking.Dead.S08E04.HDRip.mkv
Format : Matroska
Format version : Version 4 / Version 2
File size : 567 MiB
Duration : 42 min 2 s
Overall bit rate : 1 885 kb/s
Movie name : Some Guy
Encoded date : UTC 2017-11-13 09:19:21
Writing application : mkvmerge v8.3.0 ('Over the Horizon') 64bit
Writing library : libebml v1.3.1 + libmatroska v1.4.2

Video
ID : 1
Format : AVC
Format/Info : Advanced Video Codec
Format profile : Baseline@L3.1
Format settings, CABAC : No
Format settings, ReFrames : 1 frame
Codec ID : V_MPEG4/ISO/AVC
Duration : 42 min 2 s
Bit rate : 1 500 kb/s
Width : 720 pixels
Height : 400 pixels
Display aspect ratio : 16:9
Frame rate mode : Constant
Frame rate : 23.976 (24000/1001) FPS
Color space : YUV
Chroma subsampling : 4:2:0
Bit depth : 8 bits
Scan type : Progressive
Bits/(Pixel*Frame) : 0.217
Stream size : 451 MiB (80%)
Writing library : x264 core 148 r2708 86b7198
Encoding settings : cabac=0 / ref=1 / deblock=1:0:0 / analyse=0x1:0x111 / me=hex / subme=2 / psy=1 / psy_rd=1.00:0.00 / mixed_ref=0 / me_range=16 / chroma_me=1 / trellis=0 / 8x8dct=0 / cqm=0 / deadzone=21,11 / fast_pskip=1 / chroma_qp_offset=0 / threads=12 / lookahead_threads=3 / sliced_threads=0 / nr=0 / decimate=1 / interlaced=0 / bluray_compat=0 / constrained_intra=0 / bframes=0 / weightp=0 / keyint=240 / keyint_min=24 / scenecut=40 / intra_refresh=0 / rc_lookahead=10 / rc=2pass / mbtree=1 / bitrate=1500 / ratetol=1.0 / qcomp=0.60 / qpmin=0 / qpmax=69 / qpstep=4 / cplxblur=20.0 / qblur=0.5 / vbv_maxrate=14000 / vbv_bufsize=14000 / nal_hrd=none / filler=0 / ip_ratio=1.40 / aq=1:1.00
Default : Yes
Forced : No
Color range : Limited
Color primaries : BT.709
Transfer characteristics : BT.709
Matrix coefficients : BT.709

Audio
ID : 2
Format : AC-3
Format/Info : Audio Coding 3
Format settings, Endianness : Big
Codec ID : A_AC3
Duration : 42 min 2 s
Bit rate mode : Constant
Bit rate : 384 kb/s
Channel(s) : 6 channels
Channel positions : Front: L C R, Side: L R, LFE
Sampling rate : 48.0 kHz
Frame rate : 31.250 FPS (1536 spf)
Bit depth : 16 bits
Compression mode : Lossy
Stream size : 115 MiB (20%)
Title : Surround
Language : English
Service kind : Complete Main
Default : Yes
Forced : No





General
Unique ID : 286253580951170563850508200342902056969 (0xD75A6F2FDECEF61F931373B91750A809)
Complete name : D:\Downloads\The.Walking.Dead.S08E04.iNTERNAL.720p.WEB.H264-STRiFE[rarbg]\the.walking.dead.s08e04.internal.720p.web.h264-strife.mkv
Format : Matroska
Format version : Version 4 / Version 2
File size : 1.47 GiB
Duration : 41 min 46 s
Overall bit rate mode : Variable
Overall bit rate : 5 045 kb/s
Encoded date : UTC 2017-11-13 08:55:56
Writing application : mkvmerge v7.3.0 ('Nouages') 64bit built on Oct 23 2014 13:14:01
Writing library : libebml v1.3.0 + libmatroska v1.4.1

Video
ID : 1
Format : AVC
Format/Info : Advanced Video Codec
Format profile : High@L3.1
Format settings, CABAC : Yes
Format settings, ReFrames : 5 frames
Codec ID : V_MPEG4/ISO/AVC
Duration : 41 min 46 s
Bit rate mode : Variable
Bit rate : 4 403 kb/s
Maximum bit rate : 4 500 kb/s
Width : 1 280 pixels
Height : 720 pixels
Display aspect ratio : 16:9
Frame rate mode : Constant
Frame rate : 23.976 (24000/1001) FPS
Color space : YUV
Chroma subsampling : 4:2:0
Bit depth : 8 bits
Scan type : Progressive
Bits/(Pixel*Frame) : 0.199
Stream size : 1.28 GiB (87%)
Language : English
Default : Yes
Forced : No
Color range : Limited
Color primaries : BT.709
Transfer characteristics : BT.709
Matrix coefficients : BT.709

Audio
ID : 2
Format : E-AC-3
Format/Info : Enhanced Audio Coding 3
Format settings, Endianness : Big
Codec ID : A_EAC3
Duration : 41 min 45 s
Bit rate mode : Constant
Bit rate : 640 kb/s
Channel(s) : 6 channels
Channel positions : Front: L C R, Side: L R, LFE
Sampling rate : 48.0 kHz
Frame rate : 187.500 FPS (256 spf)
Compression mode : Lossy
Stream size : 191 MiB (13%)
Language : English
Service kind : Complete Main
Default : Yes
Forced : No

Text
ID : 3
Format : UTF-8
Codec ID : S_TEXT/UTF8
Codec ID/Info : UTF-8 Plain Text
Duration : 40 min 55 s
Bit rate : 32 b/s
Count of elements : 579
Stream size : 9.62 KiB (0%)
Language : English
Default : No
Forced : No





General
Unique ID : 6623702525511408558441374960109562418 (0x4FBADBF85E59037C6B3FE6F600D2A32)
Complete name : D:\Downloads\The.Walking.Dead.S08E04.1080p.WEB.H264-STRiFE[rarbg]\the.walking.dead.s08e04.1080p.web.h264-strife.mkv
Format : Matroska
Format version : Version 4 / Version 2
File size : 4.38 GiB
Duration : 41 min 46 s
Overall bit rate mode : Variable
Overall bit rate : 15.0 Mb/s
Encoded date : UTC 2017-11-13 08:56:00
Writing application : mkvmerge v7.3.0 ('Nouages') 64bit built on Oct 23 2014 13:14:01
Writing library : libebml v1.3.0 + libmatroska v1.4.1

Video
ID : 1
Format : AVC
Format/Info : Advanced Video Codec
Format profile : High@L4
Format settings, CABAC : Yes
Format settings, ReFrames : 4 frames
Codec ID : V_MPEG4/ISO/AVC
Duration : 41 min 46 s
Bit rate mode : Variable
Bit rate : 14.4 Mb/s
Maximum bit rate : 15.0 Mb/s
Width : 1 920 pixels
Height : 1 080 pixels
Display aspect ratio : 16:9
Frame rate mode : Constant
Frame rate : 23.976 (24000/1001) FPS
Color space : YUV
Chroma subsampling : 4:2:0
Bit depth : 8 bits
Scan type : Progressive
Bits/(Pixel*Frame) : 0.289
Stream size : 4.19 GiB (96%)
Language : English
Default : Yes
Forced : No
Color range : Limited
Color primaries : BT.709
Transfer characteristics : BT.709
Matrix coefficients : BT.709

Audio
ID : 2
Format : E-AC-3
Format/Info : Enhanced Audio Coding 3
Format settings, Endianness : Big
Codec ID : A_EAC3
Duration : 41 min 45 s
Bit rate mode : Constant
Bit rate : 640 kb/s
Channel(s) : 6 channels
Channel positions : Front: L C R, Side: L R, LFE
Sampling rate : 48.0 kHz
Frame rate : 187.500 FPS (256 spf)
Compression mode : Lossy
Stream size : 191 MiB (4%)
Language : English
Service kind : Complete Main
Default : Yes
Forced : No

Text
ID : 3
Format : UTF-8
Codec ID : S_TEXT/UTF8
Codec ID/Info : UTF-8 Plain Text
Duration : 40 min 55 s
Bit rate : 32 b/s
Count of elements : 579
Stream size : 9.62 KiB (0%)
Language : English
Default : No
Forced : No




Screenshots HDRip

The Walking Dead S08E04 (2017)

The Walking Dead S08E04 (2017)

The Walking Dead S08E04 (2017)


Screenshots WEB-DL 720p

The Walking Dead S08E04 (2017)

The Walking Dead S08E04 (2017)

The Walking Dead S08E04 (2017)


Screenshots WEB-DL 1080p

The Walking Dead S08E04 (2017)

The Walking Dead S08E04 (2017)

The Walking Dead S08E04 (2017)