The Cloud-Capped Star / Meghe Dhaka Tara (1960) [Criterion Collection]

Posted By: RSU75
1080p (FullHD) / BDRip IMDb
The Cloud-Capped Star / Meghe Dhaka Tara (1960) [Criterion Collection]

The Cloud-Capped Star / Meghe Dhaka Tara (1960) [Criterion Collection, Spine #993]
BDRip 1080p | MKV | AVC, 1480x1080, ~ 3.8 Mbps | 2hr 07mn | 3.77 GB | Bengali: AC3, 1 ch, 448 kbps
BDRip 720p | MKV | AVC, 988x720, ~ 2.6 Mbps | 2hr 07mn | 2.54 GB | Bengali: AC3, 1 ch, 256 kbps
Subtitles: English
Genre: Drama, Musical
IMDB Rating: 8.0/10 (1.967 votes)


Director: Ritwik Ghatak (as Shri Ritwik Kumar Ghatak)
Writers: Samiran Dutta (assistant scenario writer), Ritwik Ghatak (scenario) (as Shri Ritwik Kumar Ghatak)
Stars: Supriya Choudhury, Anil Chatterjee, Gyanesh Mukherjee

"Meghe Dhaka Tara" tells the tragic story of the beautiful daughter of a middle-class refugee family from East Pakistan, living in the outskirts of Calcutta under modest circumstances. Neeta sacrifices everything for her family, including her personal happiness, her money, and her health, while her achievements are hardly ever recognized by the people around her.

Extras:
- None




General
Unique ID : 190583816760314430127293834172993656796 (0x8F611BA35C3ADF67B5213AB5D58457DC)
Complete name : F:\TheCloudCappedStar.1960.Cr.1p\TheCloudCappedStar.1960.Cr.1p.mkv
Format : Matroska
Format version : Version 4 / Version 2
File size : 3.77 GiB
Duration : 2 h 7 min
Overall bit rate : 4 246 kb/s
Movie name : Release RSU75
Encoded date : UTC 2019-09-16 03:31:10
Writing application : mkvmerge v6.6.0 ('The Edge Of The In Between') built on Dec 1 2013 17:55:00
Writing library : libebml v1.3.0 + libmatroska v1.4.1

Video
ID : 1
Format : AVC
Format/Info : Advanced Video Codec
Format profile : High@L4.1
Format settings : CABAC / 4 Ref Frames
Format settings, CABAC : Yes
Format settings, ReFrames : 4 frames
Codec ID : V_MPEG4/ISO/AVC
Duration : 2 h 7 min
Bit rate : 3 800 kb/s
Width : 1 480 pixels
Height : 1 080 pixels
Display aspect ratio : 1.370
Frame rate mode : Constant
Frame rate : 23.976 (23976/1000) FPS
Color space : YUV
Chroma subsampling : 4:2:0
Bit depth : 8 bits
Scan type : Progressive
Bits/(Pixel*Frame) : 0.099
Stream size : 3.30 GiB (87%)
Writing library : x264 core 148 r2643 5c65704
Encoding settings : cabac=1 / ref=4 / deblock=1:0:0 / analyse=0x3:0x113 / me=umh / subme=8 / psy=1 / psy_rd=1.00:0.00 / mixed_ref=1 / me_range=24 / chroma_me=1 / trellis=1 / 8x8dct=1 / cqm=0 / deadzone=21,11 / fast_pskip=1 / chroma_qp_offset=-2 / threads=3 / lookahead_threads=1 / sliced_threads=0 / nr=0 / decimate=1 / interlaced=0 / bluray_compat=0 / constrained_intra=0 / bframes=3 / b_pyramid=0 / b_adapt=2 / b_bias=0 / direct=3 / weightb=1 / open_gop=0 / weightp=2 / keyint=250 / keyint_min=25 / scenecut=40 / intra_refresh=0 / rc_lookahead=40 / rc=abr / mbtree=1 / bitrate=3800 / ratetol=1.0 / qcomp=0.60 / qpmin=10 / qpmax=51 / qpstep=4 / ip_ratio=1.41 / aq=1:1.00
Language : English
Default : Yes
Forced : No

Audio
ID : 2
Format : AC-3
Format/Info : Audio Coding 3
Commercial name : Dolby Digital
Codec ID : A_AC3
Duration : 2 h 7 min
Bit rate mode : Constant
Bit rate : 448 kb/s
Channel(s) : 1 channel
Channel layout : C
Sampling rate : 44.1 kHz
Frame rate : 28.711 FPS (1536 SPF)
Bit depth : 16 bits
Compression mode : Lossy
Stream size : 407 MiB (11%)
Language : Bengali
Service kind : Complete Main
Default : Yes
Forced : No

Text
ID : 3
Format : PGS
Muxing mode : zlib
Codec ID : S_HDMV/PGS
Codec ID/Info : Picture based subtitle format used on BDs/HD-DVDs
Language : English
Default : Yes
Forced : No

Menu
00:00:00.000 : en:Chapter 01
00:03:23.745 : en:Chapter 02
00:15:13.245 : en:Chapter 03
00:21:19.820 : en:Chapter 04
00:33:45.481 : en:Chapter 05
00:41:52.343 : en:Chapter 06
00:49:07.444 : en:Chapter 07
00:59:16.553 : en:Chapter 08
01:07:43.684 : en:Chapter 09
01:17:27.017 : en:Chapter 10
01:24:00.493 : en:Chapter 11
01:33:23.973 : en:Chapter 12
01:42:47.870 : en:Chapter 13
01:53:24.214 : en:Chapter 14
02:00:01.110 : en:Chapter 15





General
Unique ID : 229342050012183399799720626271027091276 (0xAC89AC12D87CF9078616210967DE574C)
Complete name : F:\TheCloudCappedStar.1960.Cr.7p\TheCloudCappedStar.1960.Cr.7p.mkv
Format : Matroska
Format version : Version 4 / Version 2
File size : 2.54 GiB
Duration : 2 h 7 min
Overall bit rate : 2 858 kb/s
Movie name : Release RSU75
Encoded date : UTC 2019-09-16 03:12:01
Writing application : mkvmerge v6.6.0 ('The Edge Of The In Between') built on Dec 1 2013 17:55:00
Writing library : libebml v1.3.0 + libmatroska v1.4.1

Video
ID : 1
Format : AVC
Format/Info : Advanced Video Codec
Format profile : High@L4.1
Format settings : CABAC / 4 Ref Frames
Format settings, CABAC : Yes
Format settings, ReFrames : 4 frames
Codec ID : V_MPEG4/ISO/AVC
Duration : 2 h 7 min
Bit rate : 2 600 kb/s
Width : 988 pixels
Height : 720 pixels
Display aspect ratio : 1.371
Original display aspect rat : 1.370
Frame rate mode : Constant
Frame rate : 23.976 (23976/1000) FPS
Color space : YUV
Chroma subsampling : 4:2:0
Bit depth : 8 bits
Scan type : Progressive
Bits/(Pixel*Frame) : 0.152
Stream size : 2.26 GiB (89%)
Writing library : x264 core 148 r2643 5c65704
Encoding settings : cabac=1 / ref=4 / deblock=1:0:0 / analyse=0x3:0x113 / me=umh / subme=8 / psy=1 / psy_rd=1.00:0.00 / mixed_ref=1 / me_range=24 / chroma_me=1 / trellis=1 / 8x8dct=1 / cqm=0 / deadzone=21,11 / fast_pskip=1 / chroma_qp_offset=-2 / threads=3 / lookahead_threads=1 / sliced_threads=0 / nr=0 / decimate=1 / interlaced=0 / bluray_compat=0 / constrained_intra=0 / bframes=3 / b_pyramid=0 / b_adapt=2 / b_bias=0 / direct=3 / weightb=1 / open_gop=0 / weightp=2 / keyint=250 / keyint_min=25 / scenecut=40 / intra_refresh=0 / rc_lookahead=40 / rc=abr / mbtree=1 / bitrate=2600 / ratetol=1.0 / qcomp=0.60 / qpmin=10 / qpmax=51 / qpstep=4 / ip_ratio=1.41 / aq=1:1.00
Language : English
Default : Yes
Forced : No

Audio
ID : 2
Format : AC-3
Format/Info : Audio Coding 3
Commercial name : Dolby Digital
Codec ID : A_AC3
Duration : 2 h 7 min
Bit rate mode : Constant
Bit rate : 256 kb/s
Channel(s) : 1 channel
Channel layout : C
Sampling rate : 44.1 kHz
Frame rate : 28.711 FPS (1536 SPF)
Bit depth : 16 bits
Compression mode : Lossy
Stream size : 233 MiB (9%)
Language : Bengali
Service kind : Complete Main
Default : Yes
Forced : No

Text
ID : 3
Format : PGS
Muxing mode : zlib
Codec ID : S_HDMV/PGS
Codec ID/Info : Picture based subtitle format used on BDs/HD-DVDs
Language : English
Default : Yes
Forced : No

Menu
00:00:00.000 : en:Chapter 01
00:03:23.745 : en:Chapter 02
00:15:13.245 : en:Chapter 03
00:21:19.820 : en:Chapter 04
00:33:45.481 : en:Chapter 05
00:41:52.343 : en:Chapter 06
00:49:07.444 : en:Chapter 07
00:59:16.553 : en:Chapter 08
01:07:43.684 : en:Chapter 09
01:17:27.017 : en:Chapter 10
01:24:00.493 : en:Chapter 11
01:33:23.973 : en:Chapter 12
01:42:47.870 : en:Chapter 13
01:53:24.214 : en:Chapter 14
02:00:01.110 : en:Chapter 15




Screenshots 1080p (click to enlarge to original size):

The Cloud-Capped Star / Meghe Dhaka Tara (1960) [Criterion Collection]

The Cloud-Capped Star / Meghe Dhaka Tara (1960) [Criterion Collection]

The Cloud-Capped Star / Meghe Dhaka Tara (1960) [Criterion Collection]



Screenshots 720p (click to enlarge to original size):

The Cloud-Capped Star / Meghe Dhaka Tara (1960) [Criterion Collection]




–––––––––––––––––––––––––––––––––––––––-
>>> "Criterion Collection" <<< OR >>> "BDRip" <<< OR >>> "Bengali" <<<
–––––––––––––––––––––––––––––––––––––––-
>>> Visit Blog RSU75 Here <<<
–––––––––––––––––––––––––––––––––––––––-