Tags
Language
Tags

The Sheltering Sky (1990)

Posted By: RSU75
1080p (FullHD) / BDRip IMDb
The Sheltering Sky (1990)

The Sheltering Sky (1990)
BDRip 1080p | MKV | AVC, 1920x1080, ~ 4.1 Mbps | 2hr 17mn | 6.10 GB
German (Deutsch): DTS, 2 ch, 768 kbps; English: DTS, 6 ch, 1509 kbps
BDRip 720p | MKV | AVC, 1280x720, ~ 3.0 Mbps | 2hr 17mn | 3.72 GB
German (Deutsch): AC3, 2 ch, 448 kbps; English: AC3, 6 ch, 448 kbps
Subtitles: German (Deutsch)
Genre: Adventure, Drama



Director: Bernardo Bertolucci
Writer: Paul Bowles (book), Mark Peploe (screenplay)
Stars: Debra Winger, John Malkovich, Campbell Scott

The American artist couple Port and Kit Moresby travels aimless through Africa, searching for new experiences that could give new sense to their relationship. But the flight to distant regions leads both only deeper into despair.

Film Distributor: Studio Canal

Extras:
- None




General
Unique ID : 189577329592267941306632032852070361665 (0x8E9F43FD4DFB6A7BBF743CAED4AFEA41)
Complete name : F:\TheShelteringSky.90.1p\TheShelteringSky.90.1p.mkv
Format : Matroska
Format version : Version 4 / Version 2
File size : 6.10 GiB
Duration : 2 h 17 min
Overall bit rate : 6 331 kb/s
Movie name : Release RSU75
Encoded date : UTC 2020-04-20 12:59:48
Writing application : mkvmerge v6.6.0 ('The Edge Of The In Between') built on Dec 1 2013 17:55:00
Writing library : libebml v1.3.0 + libmatroska v1.4.1

Video
ID : 1
Format : AVC
Format/Info : Advanced Video Codec
Format profile : High@L4.1
Format settings : CABAC / 4 Ref Frames
Format settings, CABAC : Yes
Format settings, ReFrames : 4 frames
Codec ID : V_MPEG4/ISO/AVC
Duration : 2 h 17 min
Bit rate : 4 100 kb/s
Width : 1 920 pixels
Height : 1 080 pixels
Display aspect ratio : 16:9
Frame rate mode : Constant
Frame rate : 23.976 (23976/1000) FPS
Color space : YUV
Chroma subsampling : 4:2:0
Bit depth : 8 bits
Scan type : Progressive
Bits/(Pixel*Frame) : 0.082
Stream size : 3.78 GiB (62%)
Writing library : x264 core 148 r2643 5c65704
Encoding settings : cabac=1 / ref=4 / deblock=1:0:0 / analyse=0x3:0x113 / me=umh / subme=8 / psy=1 / psy_rd=1.00:0.00 / mixed_ref=1 / me_range=24 / chroma_me=1 / trellis=1 / 8x8dct=1 / cqm=0 / deadzone=21,11 / fast_pskip=1 / chroma_qp_offset=-2 / threads=3 / lookahead_threads=1 / sliced_threads=0 / nr=0 / decimate=1 / interlaced=0 / bluray_compat=0 / constrained_intra=0 / bframes=3 / b_pyramid=0 / b_adapt=2 / b_bias=0 / direct=3 / weightb=1 / open_gop=0 / weightp=2 / keyint=250 / keyint_min=25 / scenecut=40 / intra_refresh=0 / rc_lookahead=40 / rc=abr / mbtree=1 / bitrate=4100 / ratetol=1.0 / qcomp=0.60 / qpmin=10 / qpmax=51 / qpstep=4 / ip_ratio=1.41 / aq=1:1.00
Language : English
Default : Yes
Forced : No

Audio #1
ID : 2
Format : DTS
Format/Info : Digital Theater Systems
Codec ID : A_DTS
Duration : 2 h 17 min
Bit rate mode : Constant
Bit rate : 768 kb/s
Channel(s) : 2 channels
Channel layout : L R
Sampling rate : 48.0 kHz
Frame rate : 93.750 FPS (512 SPF)
Bit depth : 24 bits
Compression mode : Lossy
Stream size : 757 MiB (12%)
Title : Stereo
Language : German
Default : Yes
Forced : No

Audio #2
ID : 3
Format : DTS
Format/Info : Digital Theater Systems
Codec ID : A_DTS
Duration : 2 h 17 min
Bit rate mode : Constant
Bit rate : 1 509 kb/s
Channel(s) : 6 channels
Channel layout : C L R Ls Rs LFE
Sampling rate : 48.0 kHz
Frame rate : 93.750 FPS (512 SPF)
Bit depth : 24 bits
Compression mode : Lossy
Stream size : 1.45 GiB (24%)
Title : Surround 5.1
Language : English
Default : No
Forced : No

Text #1
ID : 4
Format : PGS
Muxing mode : zlib
Codec ID : S_HDMV/PGS
Codec ID/Info : Picture based subtitle format used on BDs/HD-DVDs
Language : German
Default : No
Forced : No

Text #2
ID : 5
Format : PGS
Muxing mode : zlib
Codec ID : S_HDMV/PGS
Codec ID/Info : Picture based subtitle format used on BDs/HD-DVDs
Language : German
Default : No
Forced : No

Menu
00:00:00.000 : en:Chapter 01
00:11:20.429 : en:Chapter 02
00:24:30.260 : en:Chapter 03
00:31:59.083 : en:Chapter 04
00:40:31.679 : en:Chapter 05
00:53:21.114 : en:Chapter 06
01:06:08.130 : en:Chapter 07
01:18:37.671 : en:Chapter 08
01:30:52.196 : en:Chapter 09
01:41:35.964 : en:Chapter 10
01:54:10.385 : en:Chapter 11
02:03:51.757 : en:Chapter 12





General
Unique ID : 245066363834606232779459072950831141915 (0xB85E1099D214BB5699C153666C93D41B)
Complete name : F:\TheShelteringSky.90.7p\TheShelteringSky.90.7p.mkv
Format : Matroska
Format version : Version 4 / Version 2
File size : 3.72 GiB
Duration : 2 h 17 min
Overall bit rate : 3 867 kb/s
Movie name : Release RSU75
Encoded date : UTC 2020-04-21 02:45:51
Writing application : mkvmerge v6.6.0 ('The Edge Of The In Between') built on Dec 1 2013 17:55:00
Writing library : libebml v1.3.0 + libmatroska v1.4.1

Video
ID : 1
Format : AVC
Format/Info : Advanced Video Codec
Format profile : High@L4.1
Format settings : CABAC / 4 Ref Frames
Format settings, CABAC : Yes
Format settings, ReFrames : 4 frames
Codec ID : V_MPEG4/ISO/AVC
Duration : 2 h 17 min
Bit rate : 3 000 kb/s
Width : 1 280 pixels
Height : 720 pixels
Display aspect ratio : 16:9
Frame rate mode : Constant
Frame rate : 23.976 (23976/1000) FPS
Color space : YUV
Chroma subsampling : 4:2:0
Bit depth : 8 bits
Scan type : Progressive
Bits/(Pixel*Frame) : 0.136
Stream size : 2.79 GiB (75%)
Writing library : x264 core 148 r2643 5c65704
Encoding settings : cabac=1 / ref=4 / deblock=1:0:0 / analyse=0x3:0x113 / me=umh / subme=8 / psy=1 / psy_rd=1.00:0.00 / mixed_ref=1 / me_range=24 / chroma_me=1 / trellis=1 / 8x8dct=1 / cqm=0 / deadzone=21,11 / fast_pskip=1 / chroma_qp_offset=-2 / threads=3 / lookahead_threads=1 / sliced_threads=0 / nr=0 / decimate=1 / interlaced=0 / bluray_compat=0 / constrained_intra=0 / bframes=3 / b_pyramid=0 / b_adapt=2 / b_bias=0 / direct=3 / weightb=1 / open_gop=0 / weightp=2 / keyint=250 / keyint_min=25 / scenecut=40 / intra_refresh=0 / rc_lookahead=40 / rc=abr / mbtree=1 / bitrate=3000 / ratetol=1.0 / qcomp=0.60 / qpmin=10 / qpmax=51 / qpstep=4 / ip_ratio=1.41 / aq=1:1.00
Language : English
Default : Yes
Forced : No

Audio #1
ID : 2
Format : AC-3
Format/Info : Audio Coding 3
Commercial name : Dolby Digital
Codec ID : A_AC3
Duration : 2 h 17 min
Bit rate mode : Constant
Bit rate : 448 kb/s
Channel(s) : 2 channels
Channel layout : L R
Sampling rate : 48.0 kHz
Frame rate : 31.250 FPS (1536 SPF)
Bit depth : 16 bits
Compression mode : Lossy
Stream size : 442 MiB (12%)
Title : Stereo
Language : German
Service kind : Complete Main
Default : Yes
Forced : No

Audio #2
ID : 3
Format : AC-3
Format/Info : Audio Coding 3
Commercial name : Dolby Digital
Codec ID : A_AC3
Duration : 2 h 17 min
Bit rate mode : Constant
Bit rate : 448 kb/s
Channel(s) : 6 channels
Channel layout : L R C LFE Ls Rs
Sampling rate : 48.0 kHz
Frame rate : 31.250 FPS (1536 SPF)
Bit depth : 16 bits
Compression mode : Lossy
Stream size : 442 MiB (12%)
Title : Surround 5.1
Language : English
Service kind : Complete Main
Default : No
Forced : No

Text #1
ID : 4
Format : PGS
Muxing mode : zlib
Codec ID : S_HDMV/PGS
Codec ID/Info : Picture based subtitle format used on BDs/HD-DVDs
Language : German
Default : No
Forced : No

Text #2
ID : 5
Format : PGS
Muxing mode : zlib
Codec ID : S_HDMV/PGS
Codec ID/Info : Picture based subtitle format used on BDs/HD-DVDs
Language : German
Default : No
Forced : No

Menu
00:00:00.000 : en:Chapter 01
00:11:20.429 : en:Chapter 02
00:24:30.260 : en:Chapter 03
00:31:59.083 : en:Chapter 04
00:40:31.679 : en:Chapter 05
00:53:21.114 : en:Chapter 06
01:06:08.130 : en:Chapter 07
01:18:37.671 : en:Chapter 08
01:30:52.196 : en:Chapter 09
01:41:35.964 : en:Chapter 10
01:54:10.385 : en:Chapter 11
02:03:51.757 : en:Chapter 12




Screenshots 1080p (click to enlarge to original size):

The Sheltering Sky (1990)

The Sheltering Sky (1990)

The Sheltering Sky (1990)



Screenshots 720p (click to enlarge to original size):

The Sheltering Sky (1990)







If you like this release please visit my blog
In it you will find releases of director Bernardo Bertolucci