The Badger Game (2014)

Posted By: NaVi7
The Badger Game (2014)

The Badger Game (2014)
WEBRip | MP4 / AVC, 2530 Kbps | 1920x1080 | 1h 39mn | 1.85 GB
English: MP3, 135 Kbps (2 ch) | Subtitles: None
Genre: Crime | Drama | Thriller

A chronic philanderer falls victim to an extortion scheme when he is abducted by four masked strangers demanding retribution for his sins.

imdb

General
Complete name : The.Badger.Game.2014.WEBRip.x264-RR.mp4
Format : MPEG-4
Format profile : Base Media
Codec ID : isom
File size : 1.85 GiB
Duration : 1h 39mn
Overall bit rate mode : Variable
Overall bit rate : 2 669 Kbps
Encoded date : UTC 2015-05-24 14:17:40
Tagged date : UTC 2015-05-24 14:17:40

Video
ID : 1
Format : AVC
Format/Info : Advanced Video Codec
Format profile : High@L4.2
Format settings, CABAC : Yes
Format settings, ReFrames : 4 frames
Codec ID : avc1
Codec ID/Info : Advanced Video Coding
Duration : 1h 39mn
Bit rate : 2 530 Kbps
Maximum bit rate : 9 186 Kbps
Width : 1 920 pixels
Height : 1 080 pixels
Display aspect ratio : 16:9
Frame rate mode : Constant
Frame rate : 24.000 fps
Color space : YUV
Chroma subsampling : 4:2:0
Bit depth : 8 bits
Scan type : Progressive
Bits/(Pixel*Frame) : 0.051
Stream size : 1.75 GiB (95%)
Writing library : x264 core 146 r2538kMod 121396c
Encoding settings : cabac=1 / ref=3 / deblock=1:-1:-1 / analyse=0x3:0x113 / me=hex / subme=7 / psy=1 / fade_compensate=0.00 / psy_rd=1.00:0.00 / mixed_ref=1 / me_range=16 / chroma_me=1 / trellis=1 / 8x8dct=1 / cqm=0 / deadzone=21,11 / fast_pskip=1 / chroma_qp_offset=-2 / threads=12 / lookahead_threads=2 / sliced_threads=0 / nr=0 / decimate=1 / interlaced=0 / bluray_compat=0 / constrained_intra=0 / fgo=0 / bframes=3 / b_pyramid=2 / b_adapt=1 / b_bias=0 / direct=1 / weightb=1 / open_gop=0 / weightp=2 / keyint=250 / keyint_min=25 / scenecut=40 / intra_refresh=0 / rc_lookahead=40 / rc=crf / mbtree=1 / crf=20.0000 / qcomp=0.60 / qpmin=0 / qpmax=69 / qpstep=4 / ip_ratio=1.40 / aq=1:1.00
Encoded date : UTC 2015-05-24 14:17:40
Tagged date : UTC 2015-05-24 14:18:09

Audio
ID : 2
Format : MPEG Audio
Format version : Version 1
Format profile : Layer 3
Mode : Joint stereo
Mode extension : MS Stereo
Codec ID : .mp3
Duration : 1h 39mn
Bit rate mode : Variable
Bit rate : 135 Kbps
Nominal bit rate : 192 Kbps
Maximum bit rate : 157 Kbps
Channel(s) : 2 channels
Sampling rate : 48.0 KHz
Compression mode : Lossy
Stream size : 95.8 MiB (5%)
Title : mp3#audio@GPAC0.5.2-DEV-rev303-ge721379-master
Writing library : LAME3.99r
Encoding settings : -m j -V 4 -q 2 -lowpass 18.6 –abr 192
Encoded date : UTC 2015-05-24 14:18:07
Tagged date : UTC 2015-05-24 14:18:09


screenshots:

The Badger Game (2014)

The Badger Game (2014)

The Badger Game (2014)