The Beat Beneath My Feet (2014)

Posted By: NaVi7
The Beat Beneath My Feet (2014)

The Beat Beneath My Feet (2014)
WEBRip | AVI / XviD, 1501 Kbps | 720x400 | 1h 31mn | 1.09 GB
English: AC3, 192 Kbps (6 ch) | Subtitles: None
Genre: Comedy | Drama | Family | Music

A teenage boy lives with his single mum in a flat in South London. Into the flat below moves an anti-social, former Rock God who faked his death 8 years ago. The teenage boy works out who the mysterious neighbour is and blackmails him into teaching him the dark arts of Rock Guitar.

imdb - 2 nominations.

General
Complete name : The Beat Beneath My Feet.2014.WEBRiP.XViD.AC3.5.1.ReLeNTLesS.avi
Format : AVI
Format/Info : Audio Video Interleave
File size : 1.09 GiB
Duration : 1h 31mn
Overall bit rate : 1 701 Kbps

Video
ID : 0
Format : MPEG-4 Visual
Format profile : Advanced Simple@L5
Format settings, BVOP : 1
Format settings, QPel : No
Format settings, GMC : No warppoints
Format settings, Matrix : Default (H.263)
Muxing mode : Packed bitstream
Codec ID : XVID
Codec ID/Hint : XviD
Duration : 1h 31mn
Bit rate : 1 501 Kbps
Width : 720 pixels
Height : 400 pixels
Display aspect ratio : 16:9
Frame rate : 23.976 fps
Color space : YUV
Chroma subsampling : 4:2:0
Bit depth : 8 bits
Scan type : Progressive
Compression mode : Lossy
Bits/(Pixel*Frame) : 0.217
Stream size : 986 MiB (88%)
Writing library : XviD 1.2.1 (UTC 2008-12-04)

Audio
ID : 1
Format : AC-3
Format/Info : Audio Coding 3
Mode extension : CM (complete main)
Format settings, Endianness : Big
Codec ID : 2000
Duration : 1h 31mn
Bit rate mode : Constant
Bit rate : 192 Kbps
Channel(s) : 6 channels
Channel positions : Front: L C R, Side: L R, LFE
Sampling rate : 48.0 KHz
Compression mode : Lossy
Stream size : 126 MiB (11%)
Alignment : Aligned on interleaves
Interleave, duration : 64 ms (1.53 video frames)
Interleave, preload duratio : 192 ms
Title : The Beat Beneath My Feet.2014.ReLeNTLesS.Audio.AC3.5.1.English_new


screenshots:

The Beat Beneath My Feet (2014)

The Beat Beneath My Feet (2014)

The Beat Beneath My Feet (2014)