The Beautiful World Of Mechanical Music (1998)

Posted By: vivid23
The Beautiful World Of Mechanical Music (1998)

The Beautiful World Of Mechanical Music (1998)
DVDrip | 640x496 | AVI/XviD @ 1599 Kbps | 54mn | Audio: English AC3 192 kbps, 2 channels | Subs: None | 702 MB
Genre: Documentary

Ted Brown, President of the Music Box Society, never fails to be amazed by the variety of music boxes in his beautifully restored 20-year-old collection. And nor will you be as Ted and fellow enthusiasts share their incredible knowledge of the world's music boxes, barrel and reed organs with Paul Donaghue - in another musical odyssey that blends traditional and classical tunes.

More info

Video
ID : 0
Format : MPEG-4 Visual
Format profile : Simple@L3
Format settings, BVOP : No
Format settings, QPel : No
Format settings, GMC : No warppoints
Format settings, Matrix : Default (H.263)
Codec ID : XVID
Codec ID/Hint : XviD
Duration : 54mn 27s
Bit rate : 1 599 Kbps
Width : 640 pixels
Height : 496 pixels
Display aspect ratio : 1.290
Frame rate : 25.000 fps
Color space : YUV
Chroma subsampling : 4:2:0
Bit depth : 8 bits
Scan type : Progressive
Compression mode : Lossy
Bits/(Pixel*Frame) : 0.202
Stream size : 623 MiB (89%)
Writing library : XviD 1.1.2 (UTC 2006-11-01)

Audio
ID : 1
Format : AC-3
Format/Info : Audio Coding 3
Mode extension : CM (complete main)
Codec ID : 2000
Duration : 54mn 27s
Bit rate mode : Constant
Bit rate : 192 Kbps
Channel(s) : 2 channels
Channel positions : Front: L R
Sampling rate : 48.0 KHz
Bit depth : 16 bits
Compression mode : Lossy
Stream size : 74.8 MiB (11%)
Alignment : Aligned on interleaves
Interleave, duration : 32 ms (0.80 video frame)
Interleave, preload duration : 32 ms


The Beautiful World Of Mechanical Music (1998)

The Beautiful World Of Mechanical Music (1998)


Feel free to contact me when links are dead