The Beaver (2011)

Posted By: FenixN
The Beaver (2011)

The Beaver (2011)
DVDRip | AVI / XviD, 1701 kb/s | 720x384 | 01:30:55 | English: AC3, 448 kb/s (6 ch) | 1.37 GB
Genre: Drama | USA

A successful businessman and loving father finds a unique means of coping with his debilitating mental illness in this drama from director Jodie Foster. When Walter Black (Mel Gibson) finds himself stuck in a downward spiral, the chance discovery of a beat-up beaver hand puppet offers him a unique opportunity to pull himself back from the brink. By using The Beaver to speak with others, Walter develops the abilities to express the suppressed feelings that were slowly eating him away from the inside.

imdb: 7/10 (2,359 votes)

Format : AVI
Format/Info : Audio Video Interleave
File size : 1.37 GiB
Duration : 1h 30mn
Overall bit rate : 2 157 Kbps

Video
ID : 0
Format : MPEG-4 Visual
Format profile : Advanced Simple@L5
Format settings, BVOP : 2
Format settings, QPel : No
Format settings, GMC : No warppoints
Format settings, Matrix : Default (H.263)
Codec ID : XVID
Codec ID/Hint : XviD
Duration : 1h 30mn
Bit rate : 1 701 Kbps
Width : 720 pixels
Height : 384 pixels
Display aspect ratio : 1.875
Frame rate : 23.976 fps
Color space : YUV
Chroma subsampling : 4:2:0
Bit depth : 8 bits
Scan type : Progressive
Compression mode : Lossy
Bits/(Pixel*Frame) : 0.257
Stream size : 1.08 GiB (79%)
Writing library : XviD 1.2.1 (UTC 2008-12-04)

Audio
ID : 1
Format : AC-3
Format/Info : Audio Coding 3
Mode extension : CM (complete main)
Codec ID : 2000
Duration : 1h 30mn
Bit rate mode : Constant
Bit rate : 448 Kbps
Channel(s) : 6 channels
Channel positions : Front: L C R, Side: L R, LFE
Sampling rate : 48.0 KHz
Bit depth : 16 bits
Compression mode : Lossy
Stream size : 291 MiB (21%)
Alignment : Aligned on interleaves
Interleave, duration : 64 ms (1.53 video frames)
Interleave, preload duration : 192 ms
Title : VTS_01_1 T80 3_2ch 448Kbps DELAY 0ms_new


screenshot
The Beaver (2011)

The Beaver (2011)

The Beaver (2011)


Welcome to the best movies collection (English, German, French language), best software, best eLearning video and many-many more: LINK
Do not forget to check my blog! Updated regularly!