The Bofors Gun (1968)

Posted By: NaVi7
The Bofors Gun (1968)

The Bofors Gun (1968)
DVDRip | AVI / XVID, 838 Kbps | 640x496 | 1h 42mn | 697 MB
English: MP3, 98 Kbps (1 ch)
Genre: Drama

A national service NCO (David Warner) who comes face to face with an embittered Irish Gunner (Nicol Williamson) who is determined to humiliate him.

imdb - Won 1 BAFTA Film Award. Another 1 nomination.

General
Complete name : The.Bofors.Gun.1968.DVDRip.XviD-RedBlade.avi
Format : AVI
Format/Info : Audio Video Interleave
File size : 697 MiB
Duration : 1h 42mn
Overall bit rate mode : Variable
Overall bit rate : 949 Kbps
Writing application : VirtualDubMod 1.5.10.2 (build 2540/release)
Writing library : VirtualDubMod build 2540/release

Video
ID : 0
Format : MPEG-4 Visual
Format profile : Advanced Simple@L5
Format settings, BVOP : 2
Format settings, QPel : No
Format settings, GMC : No warppoints
Format settings, Matrix : Default (H.263)
Muxing mode : Packed bitstream
Codec ID : XVID
Codec ID/Hint : XviD
Duration : 1h 42mn
Bit rate : 838 Kbps
Width : 640 pixels
Height : 496 pixels
Display aspect ratio : 1.290
Frame rate : 25.000 fps
Color space : YUV
Chroma subsampling : 4:2:0
Bit depth : 8 bits
Scan type : Progressive
Compression mode : Lossy
Bits/(Pixel*Frame) : 0.106
Stream size : 616 MiB (88%)
Writing library : XviD 64

Audio
ID : 1
Format : MPEG Audio
Format version : Version 1
Format profile : Layer 3
Codec ID : 55
Codec ID/Hint : MP3
Duration : 1h 42mn
Bit rate mode : Variable
Bit rate : 98.0 Kbps
Nominal bit rate : 128 Kbps
Channel(s) : 1 channel
Sampling rate : 48.0 KHz
Compression mode : Lossy
Stream size : 72.0 MiB (10%)
Alignment : Aligned on interleaves
Interleave, duration : 24 ms (0.60 video frame)
Interleave, preload duration : 585 ms
Writing library : LAME3.99r
Encoding settings : -m m -V 4 -q 2 -lowpass 20.5 –abr 128


screenshots:

The Bofors Gun (1968)

The Bofors Gun (1968)

The Bofors Gun (1968)


Welcome to My Blog!

Subscribe to My Newsletter!

No more mirrors!

If you want to download it, but found out that links are dead, just leave a comment or PM me!
Download Links:
Uploaded | Rapidgator
Links to RapidGator and Uploaded are inside the html file. Download the file and open it in your browser.